↑↓Torrent.by
Поиск
Логин: Регистрация
Пароль: Восстановить пароль
Загрузка...

Ветреная река / Wind River (2017) WEBRip 1080p | Line

Скачать vetrenaya-reka-wind-river-2017-webrip-1080p-line.torrent
U Магнитная ссылка Размер: 4.08 GB Раздают: 717 Качают: 312 Добавлен: 2017-10-11 09:42:43
Ветреная река / Wind River (2017) WEBRip 1080p | Line

Название: Ветреная река
Оригинальное название: Wind River
Год выхода: 2017
Жанр: Боевик, Детектив, Криминал, Триллер
Режиссер: Тейлор Шеридан
В ролях: Джереми Реннер, Элизабет Олсен, Джон Бернтал, Келси Чоу, Джулия Джонс, Тео Брионес, Апесанахкват, Грэм Грин, Танту Кардинал, Эрик Ланж

О фильме:
Джейн Беннер – молодая девушка, которая только что поступила на службу в ФБР. Теперь ей предстоит каждый день сталкиваться с множеством опасностей, а так же расследовать сложные дела. Однако первое же её дело оказывается не таким простым, как ожидала Джейн. Был найдет труп в лесу, и девушка старается не упустить и малейшей детали. Однако она совершенно не ориентируется в этой местности, и старается найти человека, который смог бы помогать с расследованием. Таким человеком оказывается простой охотник, идеально знающий местность. С этого момента, Джейн и её новый друг начинают активно изучать преступление, а через некоторое время они обнаруживают еще один труп, и начинают подозревать, что в небольшом городке завелся серийный убийца, который прячет своих жертв в лесу. Однако они не уверены в своей версии, и решают внимательно исследовать каждый труп. Через некоторое время, им удается отыскать улику, которая может им серьезно помочь в определении убийцы. Джейн серьезно переживает, так как это первое её дело, и она не может допустить даже мысли, что убийца не окажется за решеткой. Однако чтобы добиться этого, ей предстоит справиться с серьезными трудностями, о которых она даже не догадывается.

Присутствует реклама!

 
Страна: Великобритания, Канада, США
Продолжительность: 01:50:59

Перевод: Профессиональный (полное дублирование) - чистый звук
Субтитры: Отсутствуют

Файл
Кодек: MPEG4
Качество: WEBRip 1080p
Видео: 1912x800 (2,40:1), 23.976 fps, MPEG4 ~4996 kbps avg
Звук: 48 kHz, AC3 , 2/0 (L,R) ch, ~384 kbps


[+] MI
General
Unique ID                                : 196493048950369325983087403992696793761 (0x93D32F476F1A8CF9811DA87B43C0AAA1)
Complete name                            : ReKa.2O17.D.WEB-DL.1O8OP.mkv
Format                                   : Matroska
Format version                           : Version 2
File size                                : 4.08 GiB
Duration                                 : 1h 48mn
Overall bit rate mode                    : Variable
Overall bit rate                         : 5 382 Kbps
Encoded date                             : UTC 2017-10-09 21:15:59
Writing application                      : mkvmerge v8.3.0 ('Over the Horizon') 64bit
Writing library                          : libebml v1.3.1 + libmatroska v1.4.2

Video
ID                                       : 1
Format                                   : AVC
Format/Info                              : Advanced Video Codec
Format profile                           : High@L4.1
Format settings, CABAC                   : Yes
Format settings, ReFrames                : 5 frames
Codec ID                                 : V_MPEG4/ISO/AVC
Duration                                 : 1h 48mn
Bit rate mode                            : Variable
Bit rate                                 : 4 891 Kbps
Maximum bit rate                         : 5 600 Kbps
Width                                    : 1 912 pixels
Height                                   : 800 pixels
Display aspect ratio                     : 2.40:1
Frame rate mode                          : Constant
Frame rate                               : 23.976 fps
Standard                                 : Component
Color space                              : YUV
Chroma subsampling                       : 4:2:0
Bit depth                                : 8 bits
Scan type                                : Progressive
Bits/(Pixel*Frame)                       : 0.133
Stream size                              : 3.70 GiB (91%)
Default                                  : Yes
Forced                                   : No
Color primaries                          : BT.709
Transfer characteristics                 : BT.709
Matrix coefficients                      : BT.709

Audio
ID                                       : 2
Format                                   : AC-3
Format/Info                              : Audio Coding 3
Mode extension                           : CM (complete main)
Format settings, Endianness              : Big
Codec ID                                 : A_AC3
Duration                                 : 1h 48mn
Bit rate mode                            : Constant
Bit rate                                 : 384 Kbps
Channel(s)                               : 2 channels
Channel positions                        : Front: L R
Sampling rate                            : 48.0 KHz
Bit depth                                : 16 bits
Compression mode                         : Lossy
Stream size                              : 298 MiB (7%)
Default                                  : Yes
Forced                                   : No




Скриншоты:
[+] Всего файлов в раздаче - 1:
ReKa.2O17.D.WEB-DL.1O8OP.mkv4.08 GB

Текущая раздача:
ДатаКомментарии    РазмерПиры
2017-10-11 U Ветреная река / Wind River (2017) WEBRip 1080p | Line 4.08 GB ↑ 717 ↓ 312

Показать ещё раздачи по запросу - ветреная:
Сегодня U Ветреная река / Wind River (2017) WEB-DLRip от MegaPeer | iTunes 745.56 MB ↑ 67 ↓ 30
Сегодня U Ветреная река / Wind River (2017) WEB-DLRip 720p | iTunes 3.23 GB ↑ 117 ↓ 86
Сегодня U Ветреная река / Wind River (2017) WEB-DLRip от MegaPeer | iTunes 1.46 GB ↑ 447 ↓ 246
Сегодня U Ветреная река / Wind River (2017) WEB-DL 1080p от ExKinoRay | iTunes 3.94 GB ↑ 576 ↓ 341
2017-10-09 U Ветреная река / Wind River (2017) WEBRip | Line 1.46 GB ↑ 1209 ↓ 507
2017-09-29 U Ветреная река / Wind River (2017) WEBRip | Звук с TS 1.46 GB ↑ 733 ↓ 360
2014-07-30 U Ветреная женщина / Серии: 1-6 из 12 (Ольга Перуновская) [2014, мелодрама, SATRip] 2.93 GB ↑ 152 ↓ 92

Отзывы
Зарегистрируйтесь чтобы добавить комментарий.
Обратная связь
Copyleft ©