↑↓Torrent.by
Поиск
Логин: Регистрация
Пароль: Восстановить пароль
Загрузка...

Яма. Наши дни (2017) WEB-DLRip-AVC от ExKinoRay

Скачать yama-nashi-dni-2017-web-dlrip-avc-ot-exkinoray.torrent
U Магнитная ссылка Размер: 744.99 MB Раздают: 115 Качают: 87 Добавлен: 2017-10-11 09:43:29
Яма. Наши дни (2017) WEB-DLRip-AVC от ExKinoRay

Название: Яма. Наши дни
Год выхода: 2017
Жанр:  Драма, артхаус
Режиссер: Виталий Манюков
В ролях: Алексей Дьячков, Андрей Лихачёв, Виталий Манюков, Георгий Олейник, Дина Белоусова, Дмитрий Ушаков, Евгений Шмелев, Екатерина Макарова, Екатерина Малахит, Игнат Костровский, Инна Королёва, Инна Лясковец, Каролина Русалеева, Кирилл Крошман-Климов, Ксения Худоба, Никита Бесогонов, Ольга Вяземская, Станислав Колесниченко, Юлия Ковалевская, Юрий Огульник

О фильме :
Современное независимое кино из России, «Яма. Наши дни» посвящена теме, которую принято осторожно замалчивать – проституции и безвыходному положению женщин, оказавшихся в этой касте.Название отсылает зрителя к повести А.И. Куприна. Сама история также перекликается с мрачным сюжетом классика, однако действие фильма происходит в наши дни. Бордель в одном из центральных районов Москвы – квартира в жилом доме, в которой живут и работают проститутки. Фактически они себе не принадлежат – впервые продав свое тело за деньги, эти женщины догадываются – они никогда не будут помилованы общественным мнением, и, что ощущается гораздо более явно, они попали в кабалу владельцев борделя. Фильм рассказывает истории обитательниц публичного дома, раскрывая через них нравственную болезнь всего общества. Сможет ли настоящая, искренняя любовь победить мир лицемерия и круговой поруки?

Страна: Россия
Студия: кинокомпания "Артель"
Продолжительность: 01:38:43
Перевод: Не требуется

Файл
Формат: MKV
Качество: WEB-DLRip-AVC
Видео: MPEG-4 AVC, 752x424, ~ 978 Кбит/с
Аудио:  AAC-LC, 2 ch, ~76 Кбит/с

Релиз:


[+] MI
Общее
Уникальный идентификатор : 213192644753766896741774551796180450871 (0xA06368EBA174EC6FBE39509719EDFE37)
Полное имя : D:MOVIESJama.Nashi.dni.2017.ExKinoRay.mkv
Формат : Matroska
Версия формата : Version 4 / Version 2
Размер файла : 745 Мбайт
Продолжительность : 1 ч. 38 м.
Общий поток : 1055 Кбит/сек
Дата кодирования : UTC 2017-10-10 21:36:10
Программа кодирования : mkvmerge v15.0.0 ('Duel with the Devil') 64-bit
Библиотека кодирования : libebml v1.3.5 + libmatroska v1.4.5

Видео
Идентификатор : 1
Формат : AVC
Формат/Информация : Advanced Video Codec
Профиль формата : High@L4.1
Параметр CABAC формата : Да
Параметр RefFrames формата : 10 кадров
Идентификатор кодека : V_MPEG4/ISO/AVC
Продолжительность : 1 ч. 38 м.
Битрейт : 978 Кбит/сек
Ширина : 752 пикселя
Высота : 424 пикселя
Соотношение сторон : 16:9
Режим частоты кадров : Постоянный
Частота кадров : 25,000 кадров/сек
Цветовое пространство : YUV
Субдискретизация насыщенности : 4:2:0
Битовая глубина : 8 бит
Тип развёртки : Прогрессивная
Бит/(Пиксели*Кадры) : 0.123
Размер потока : 690 Мбайт (93%)
Библиотека кодирования : x264 core 152 r2851kMod ba24899
Настройки программы : cabac=1 / ref=10 / deblock=1:-3:-3 / analyse=0x3:0x113 / me=umh / subme=11 / psy=1 / fade_compensate=0.00 / psy_rd=1.00:0.10 / mixed_ref=1 / me_range=32 / chroma_me=1 / trellis=2 / 8x8dct=1 / cqm=0 / deadzone=21,11 / fast_pskip=0 / chroma_qp_offset=-3 / threads=6 / lookahead_threads=1 / sliced_threads=0 / nr=0 / decimate=0 / interlaced=0 / bluray_compat=0 / constrained_intra=0 / bframes=10 / b_pyramid=2 / b_adapt=2 / b_bias=0 / direct=3 / weightb=1 / open_gop=0 / weightp=2 / keyint=250 / keyint_min=24 / scenecut=40 / intra_refresh=0 / rc_lookahead=40 / rc=2pass / mbtree=1 / bitrate=978 / ratetol=1.0 / qcomp=0.60 / qpmin=0 / qpmax=69 / qpstep=4 / cplxblur=20.0 / qblur=0.5 / vbv_maxrate=50000 / vbv_bufsize=62500 / nal_hrd=none / filler=0 / ip_ratio=1.40 / aq=3:1.00
Default : Да
Forced : Нет

Аудио
Идентификатор : 2
Формат : AAC
Формат/Информация : Advanced Audio Codec
Профиль формата : LC
Идентификатор кодека : A_AAC
Продолжительность : 1 ч. 38 м.
Битрейт : 76,0 Кбит/сек
Каналы : 2 канала
Расположение каналов : Front: L R
Частота : 48,0 КГц
Частота кадров : 46,875 кадров/сек (1024 SPF)
Метод сжатия : С потерями
Задержка видео : 9 мс.
Размер потока : 53,7 Мбайт (7%)
Default : Да
Forced : Нет



Скриншоты:
[+] Всего файлов в раздаче - 1:
Jama.Nashi.dni.2017.ExKinoRay.mkv744.99 MB

Текущая раздача:
ДатаКомментарии    РазмерПиры
2017-10-11 U Яма. Наши дни (2017) WEB-DLRip-AVC от ExKinoRay 744.99 MB ↑ 115 ↓ 87

Показать ещё раздачи по запросу - наши:
2017-10-14 U Яма. Наши дни (2017) WEB-DLRip-AVC от New-Team 745.00 MB ↑ 49 ↓ 10
2017-10-14 U Яма. Наши дни (2017) WEB-DLRip 1.46 GB ↑ 61 ↓ 34
2017-10-10 U Яма. Наши дни (2017) WEB-DLRip 720p от MediaClub 3К1.95 GB ↑ 394 ↓ 263
2017-10-10 U Яма. Наши дни (2017) WEB-DLRip 1080p от MediaClub 3.69 GB ↑ 138 ↓ 112
2017-10-09 U Заклятье. Наши дни / The Crucifixion (2017) WEB-DLRip 720p | L 1К2.94 GB ↑ 252 ↓ 217
2017-10-09 U Заклятье. Наши дни / The Crucifixion (2017) WEB-DLRip | L 1К1.34 GB ↑ 273 ↓ 154
2017-06-28 U Сборник - СССР: Наши Любимые Песни (2017) MP3 868.20 MB ↑ 676 ↓ 198

Отзывы
Зарегистрируйтесь чтобы добавить комментарий.
Обратная связь
Copyleft ©