↑↓Torrent.by
Поиск
Логин: Регистрация
Пароль: Восстановить пароль
Загрузка...

Флэш / The Flash [04х01 из 23] (2017) WEBRip | L

Скачать flesh-the-flash-04h01-iz-23-2017-webrip-l.torrent
U Магнитная ссылка Размер: 518.72 MB Раздают: 166 Качают: 27 Добавлен: 2017-10-11 13:41:43
Флэш / The Flash [04х01 из 23] (2017) WEBRip | L

Флэш / The Flash

Страна: США
Производство: Berlanti Productions, DC Entertainment, Warner Bros. Television
Год выпуска: 2017
Сезон: 4
Жанр:  фантастика, боевик, драма, приключения
Продолжительность: х ~00:43:00

Режиссеры: Джесси Варн, Ральф Хемекер, Зак Стенц, Кевин Смит

В ролях: Грант Гастин, Кэндис Паттон, Даниэль Панабэйкер, Карлос Валдес, Томас Кэвэна, Джесси Л. Мартин, Кейнан Лонсдейл, Рик Коснетт

Описание: Когда Барри было одиннадцать лет, он на собственном опыте узнал, что люди с необычными способностями действительно существуют: его мать была убита одним из таких людей. Повзрослев и став судмедэкспертом, Барри не отбросил мыслей о сверхлюдях и продолжал искать доказательства их существования, что не лучшим образом сказывалось на его репутации и общении с коллегами. Впрочем, однажды его усилия были вознаграждены…

Спустя четыре месяца после того, как Барри отправился в Силу Скорости, чтобы защитить Централ-сити от её бури, команда Флэша — в составе Уолли, Циско, Айрис, Джо, Уэллса-2 и Трейси — продолжают защищать город от преступников и мета-людей, а также ищут способ вернуть Барри...

Перевод: Любительский (многоголосый, закадровый) | КОЛДФИЛЬМ
Субтитры: нет

Качество: WEBRip
Формат: АVI
Видео кодек: XviD
Аудио кодек: АС3
Видео: 720x400 (16:9), 29.970 fps, XviD ~1 500 kbps avg
Аудио: 48.0 kHz, AC3 Dolby Digital, 2/0 (L,R) ch, ~192 kbps

Дата премьеры (мир): 10 октября 2017


[+] Media Info
General
Complete name                  : The Flash 4The_Flash_S04E01.avi
Format                         : AVI
Format/Info                    : Audio Video Interleave
File size                      : 519 MiB
Duration                       : 42mn 55s
Overall bit rate               : 1 690 Kbps
Writing application            : VirtualDubMod 1.5.10.2 (build 2540/release)
Writing library                : VirtualDubMod build 2540/release

Video
ID                             : 0
Format                         : xvid
Codec ID                       : xvid
Duration                       : 42mn 55s
Bit rate                       : 1 486 Kbps
Width                          : 720 pixels
Height                         : 400 pixels
Display aspect ratio           : 16:9
Frame rate                     : 29.970 fps
Bits/(Pixel*Frame)             : 0.172
Stream size                    : 456 MiB (88%)

Audio
ID                             : 1
Format                         : AC-3
Format/Info                    : Audio Coding 3
Mode extension                 : CM (complete main)
Format settings, Endianness    : Big
Codec ID                       : 2000
Duration                       : 42mn 55s
Bit rate mode                  : Constant
Bit rate                       : 192 Kbps
Channel(s)                     : 2 channels
Channel positions              : Front: L R
Sampling rate                  : 48.0 KHz
Compression mode               : Lossy
Stream size                    : 58.9 MiB (11%)
Alignment                      : Split accross interleaves
Interleave, duration           : 33 ms (1.00 video frame)
Interleave, preload duration   : 500 ms



Скриншоты:
[+] Всего файлов в раздаче - 1:
The_Flash_S04E01.avi518.72 MB

Текущая раздача:
ДатаКомментарии    РазмерПиры
2017-10-11 U Флэш / The Flash [04х01 из 23] (2017) WEBRip | L 518.72 MB ↑ 166 ↓ 27

Показать ещё раздачи по запросу - флэш:
2017-10-20 U Флэш / The Flash [04х01-02 из 23] (2017) WEB-DLRip от qqss44 | LostFilm 1,011.60 MB ↑ 55 ↓ 85
2017-10-18 U Флэш / The Flash [04х01-02 из 23] (2017) HDTVRip 720p | SunshineStudio 1.84 GB ↑ 134 ↓ 597
2017-10-13 U Флэш / The Flash [04х01 из 23] (2017) WEB-DLRip от qqss44 | LostFilm 505.84 MB ↑ 156 ↓ 28
2017-10-12 U Флэш / The Flash [04x01 из 23] (2017) WEBRip | IdeaFilm 582.29 MB ↑ 49 ↓ 7
2017-10-11 U Флэш / The Flash [04х01 из 23] (2017) HDTVRip 720p | SunshineStudio 1,016.14 MB ↑ 77 ↓ 38
2016-11-25 U Флэш / The Flash [03х01-07 из 23] (2016) WEB-DLRip от qqss44 | LostFilm 3.42 GB ↑ 80 ↓ 404
2016-10-28 U Флэш / The Flash [03х01-04 из 23] (2016) WEB-DLRip от qqss44 | LostFilm 2К1.96 GB ↑ 92 ↓ 228

Отзывы
Зарегистрируйтесь чтобы добавить комментарий.
Обратная связь
Copyleft ©