↑↓Torrent.by
Поиск
Логин: Регистрация
Пароль: Восстановить пароль
Загрузка...

Легенды завтрашнего дня / DC's Legends of Tomorrow [03х01 из 17] (2017) WEBRip | L

Скачать legendy-zavtrashnego-dnya-dc-s-legends-of-tomorrow-03h01-iz-17-2017-webrip-l.torrent
U Магнитная ссылка Размер: 514.94 MB Раздают: 90 Качают: 16 Добавлен: 2017-10-11 13:42:04
Легенды завтрашнего дня / DC's Legends of Tomorrow [03х01 из 17] (2017) WEBRip | L

Легенды завтрашнего дня / DC's Legends of Tomorrow

Страна: США
Производство: DC Entertainment, Warner Bros. Television, Bonanza Productions, Berlanti Productions
Год выпуска: 2017
Сезон: 3
Жанр:  триллер
Продолжительность: х ~00:43:00

Режиссеры: Роб Сайденгланц, Мейрзи Альмас, Дэвид Геддес
Авторы сценария: Рэй Утамачитт, Грэйн Годфри, Фил Клеммер

В ролях: Виктор Гарбер, Брэндон Рут, Артур Дарвилл, Кейти Лотц, Франц Драмех, Эми Пембертон, Доминик Пёрселл, Сиара Рене, Вентворт Миллер

Описание: Увидев будущее, которого обязательно нужно избежать, Рип Хантер, путешественник во времени, собирает команду из героев и злодеев, чтобы противостоять смертельной угрозе. На кону стоит не только наша планета, но и всё время в целом. Сможет ли эта команда победить бессмертное зло, абсолютно непохожее на то, что они видели раньше..?

Перевод: Любительский (многоголосый, закадровый) | КОЛДФИЛЬМ
Субтитры: нет

Качество: WEBRip
Формат: АVI
Видео кодек: XviD
Аудио кодек: АС3
Видео: 720x400 (16:9), 29.970 fps, XviD ~1 500 kbps avg
Аудио: 48.0 kHz, AC3 Dolby Digital, 2/0 (L,R) ch, ~192 kbps

Дата премьеры (мир): 10 октября 2017


[+] Media Info
General
Complete name                  : DC's Legends of Tomorrow 3DC_Legends_Of_Tomorrow_S03E01.avi
Format                         : AVI
Format/Info                    : Audio Video Interleave
File size                      : 515 MiB
Duration                       : 42mn 30s
Overall bit rate               : 1 693 Kbps
Writing application            : VirtualDubMod 1.5.10.2 (build 2540/release)
Writing library                : VirtualDubMod build 2540/release

Video
ID                             : 0
Format                         : xvid
Codec ID                       : xvid
Duration                       : 42mn 30s
Bit rate                       : 1 490 Kbps
Width                          : 720 pixels
Height                         : 400 pixels
Display aspect ratio           : 16:9
Frame rate                     : 29.970 fps
Bits/(Pixel*Frame)             : 0.173
Stream size                    : 453 MiB (88%)

Audio
ID                             : 1
Format                         : AC-3
Format/Info                    : Audio Coding 3
Mode extension                 : CM (complete main)
Format settings, Endianness    : Big
Codec ID                       : 2000
Duration                       : 42mn 30s
Bit rate mode                  : Constant
Bit rate                       : 192 Kbps
Channel(s)                     : 2 channels
Channel positions              : Front: L R
Sampling rate                  : 48.0 KHz
Compression mode               : Lossy
Stream size                    : 58.4 MiB (11%)
Alignment                      : Split accross interleaves
Interleave, duration           : 33 ms (1.00 video frame)
Interleave, preload duration   : 500 ms



Скриншоты:
[+] Всего файлов в раздаче - 1:
DC_Legends_Of_Tomorrow_S03E01.avi514.94 MB

Текущая раздача:
ДатаКомментарии    РазмерПиры
2017-10-11 U Легенды завтрашнего дня / DC's Legends of Tomorrow [03х01 из 17] (2017) WEBRip | L 514.94 MB ↑ 90 ↓ 16

Показать еще раздачи по запросу легенды:
2018-06-04 U Сергей Скробов - Торты и печеньки. Легенды и рецепты уральских сладостей (2018) PDF 3.02 MB ↑ 80 ↓ 1
2018-05-03 U Легенды о призраках 12: Чудовищная алхимия / Haunted Legends 12: Monstrous Alchemy CE (2018) PC 816.88 MB ↑ 169 ↓ 17
2018-04-12 U VA - Легенды Ретро FM Vol.3 [Compiled by Виктор31RUS] (2018) MP3 1.37 GB ↑ 170 ↓ 66
2018-04-10 U VA - Легенды Ретро FM Vol.2 (Compiled by Виктор31RUS) (2018) MP3 1.01 GB ↑ 168 ↓ 45
2018-04-09 U VA - Легенды Ретро FM Vol.1 (Compiled by Виктор31RUS) (2018) MP3 1.04 GB ↑ 258 ↓ 54
2017-12-14 U Легенды госбезопасности [01-14] (2016-2017) WEBRip от Files-х 6.71 GB ↑ 57 ↓ 60
2017-11-14 U Легенды советского сыска. Годы войны [01-04] (2017) WEBRip от Files-х 1.90 GB ↑ 49 ↓ 20

Отзывы
Зарегистрируйтесь чтобы добавить комментарий.
Обратная связь
Copyleft ©