↑↓Torrent.by
Поиск
Логин: Регистрация
Пароль: Восстановить пароль
Загрузка...

Мой убийца (2016) WEB-DLRip 1080p от MediaClub

Скачать moy-ubiyca-2016-web-dlrip-1080p-ot-mediaclub.torrent
U Магнитная ссылка Размер: 3.86 GB Раздают: 137 Качают: 44 Добавлен: 2017-10-11 13:42:07
Мой убийца (2016) WEB-DLRip 1080p от MediaClub

Название: Мой убийца
Год выхода: 2016
Жанр: Детектив, триллер
Режиссер: Костас Марсан
В ролях: Вячеслав Лавернов, Галина Тихонова, Федот Львов, Степан Федоренко, Илья Яковлев, Дьулустан Семенов, Прокопий Данилов, Дмитрий Алексеев, Иван Мишагин, Дмитрий Трофимов

О фильме:
Молодой оперативник Джулус расследует убийство девушки. Вскоре он находит подозреваемого, который признается в преступлении. Вроде бы дело можно закрывать, но Джулус замечает странности и нестыковки в показаниях. Главный герой, несмотря на неодобрение начальства, решает подробнее разобраться в этом деле. Цепочка событий приводит его в поселение золотодобытчиков, где наружу всплывают новые тайны погибшей девушки.

Страна: Россия
Студия: ART Doydu
Продолжительность: 01:43:00
Перевод: Не требуется

Файл
Кодек: h.264
Качество: WEB-DLRip 1080p
Видео: MPEG-4 AVC, 5120 Кбит/с, 1920x800, 25,000 кадр/с
Звук: Русский (AC3, 2 ch, 256 Кбит/с)
Субтитры: Нет

Семпл

Релиз: | Silverok


[+] MI
General
Unique ID                                : 212984203995671623981423750605381025362 (0xA03B43FF638AA88CA4C759EAE3ABBE52)
Complete name                            : D:uTorrentMoi.ubiycha.2016.WEB-DLRip.1080p.MediaClub.mkv
Format                                   : Matroska
Format version                           : Version 4 / Version 2
File size                                : 3.86 GiB
Duration                                 : 1 h 43 min
Overall bit rate                         : 5 369 kb/s
Encoded date                             : UTC 2017-10-10 18:36:55
Writing application                      : mkvmerge v16.0.0 ('Protest') 64-bit
Writing library                          : libebml v1.3.5 + libmatroska v1.4.8

Video
ID                                       : 1
Format                                   : AVC
Format/Info                              : Advanced Video Codec
Format profile                           : High@L4
Format settings, CABAC                   : Yes
Format settings, ReFrames                : 4 frames
Codec ID                                 : V_MPEG4/ISO/AVC
Duration                                 : 1 h 43 min
Bit rate                                 : 5 120 kb/s
Width                                    : 1 920 pixels
Height                                   : 800 pixels
Display aspect ratio                     : 2.40:1
Frame rate mode                          : Constant
Frame rate                               : 25.000 FPS
Color space                              : YUV
Chroma subsampling                       : 4:2:0
Bit depth                                : 8 bits
Scan type                                : Progressive
Bits/(Pixel*Frame)                       : 0.133
Stream size                              : 3.68 GiB (95%)
Title                                    : WEB-DLRip by Silverok
Writing library                          : x264 core 142
Encoding settings                        : cabac=1 / ref=3 / deblock=1:0:0 / analyse=0x3:0x113 / me=hex / subme=7 / psy=1 / psy_rd=1.00:0.00 / mixed_ref=1 / me_range=16 / chroma_me=1 / trellis=1 / 8x8dct=1 / cqm=0 / deadzone=21,11 / fast_pskip=1 / chroma_qp_offset=-2 / threads=36 / lookahead_threads=6 / sliced_threads=0 / nr=0 / decimate=1 / interlaced=0 / bluray_compat=0 / constrained_intra=0 / bframes=6 / b_pyramid=2 / b_adapt=1 / b_bias=0 / direct=1 / weightb=1 / open_gop=0 / weightp=2 / keyint=50 / keyint_min=26 / scenecut=0 / intra_refresh=0 / rc_lookahead=40 / rc=2pass / mbtree=1 / bitrate=5120 / ratetol=1.0 / qcomp=0.60 / qpmin=0 / qpmax=69 / qpstep=4 / cplxblur=20.0 / qblur=0.5 / vbv_maxrate=7680 / vbv_bufsize=20480 / nal_hrd=none / filler=0 / ip_ratio=1.40 / aq=1:1.00
Default                                  : Yes
Forced                                   : No

Audio
ID                                       : 2
Format                                   : AC-3
Format/Info                              : Audio Coding 3
Format settings, Endianness              : Big
Codec ID                                 : A_AC3
Duration                                 : 1 h 43 min
Bit rate mode                            : Constant
Bit rate                                 : 256 kb/s
Channel(s)                               : 2 channels
Channel positions                        : Front: L R
Sampling rate                            : 48.0 kHz
Frame rate                               : 31.250 FPS (1536 spf)
Bit depth                                : 16 bits
Compression mode                         : Lossy
Stream size                              : 189 MiB (5%)
Language                                 : Russian
Service kind                             : Complete Main
Default                                  : Yes
Forced                                   : No



Скриншоты:
[+] Всего файлов в раздаче - 1:
Moi.ubiycha.2016.WEB-DLRip.1080p.MediaClub.mkv3.86 GB

Текущая раздача:
ДатаКомментарии    РазмерПиры
2017-10-11 U Мой убийца (2016) WEB-DLRip 1080p от MediaClub 3.86 GB ↑ 137 ↓ 44

Показать еще раздачи по запросу убийца:
2017-11-28 U Убийца на шпильках / High Heel Homicide (2017) WEB-DL 1080p | L2 6.82 GB ↑ 89 ↓ 51
2017-11-27 U Убийца на шпильках / High Heel Homicide (2017) WEBRip 720p | L2 1К2.04 GB ↑ 65 ↓ 61
2017-11-27 U Убийца на шпильках / High Heel Homicide (2017) WEBRip | L2 1.37 GB ↑ 135 ↓ 104
2017-11-19 U Убийца / O Matador (2017) WEBRip | L 1К1.46 GB ↑ 371 ↓ 211
2017-10-14 U Мой убийца (2016) WEB-DLRip-AVC от New-Team 1.42 GB ↑ 116 ↓ 20
2017-08-26 U Убийца / Sicario (2015) BDRip от HQCLUB | D | iTunes 3К2.18 GB ↑ 168 ↓ 31
2017-08-19 U Я – убийца / Jestem morderca / I'm a Killer (2016) HDRip | L2 1.46 GB ↑ 192 ↓ 160

Отзывы
Зарегистрируйтесь чтобы добавить комментарий.
Обратная связь
Copyleft ©