↑↓Torrent.by
Поиск
Логин: Регистрация
Пароль: Восстановить пароль
Загрузка...

Хикок / Hickok (2017) WEB-DLRip 1080р | L

Скачать hikok-hickok-2017-web-dlrip-1080r-l.torrent
U Магнитная ссылка Размер: 3.33 GB Раздают: 93 Качают: 62 Добавлен: 2017-10-11 18:43:03
Хикок / Hickok (2017) WEB-DLRip 1080р | L

Хикок / Hickok

Страна: США
Производство: Avery Productions (II), Status Media & Entertainment, Vision Tree
Год выпуска: 2017
Жанр:  вестерн
Продолжительность: 01:28:20

Режиссер: Тимоти Вудворд мл.
Автор сценария: Майкл Лэнахан

В ролях: Люк Хемсворт, Трэйси Д. Эдкинс, Крис Кристофферсон, Брюс Дерн, Кэмерон Ричардсон, Каиви Лайман, Хантер Фишер, Роберт Катрини

Описание: Очередное приключение Дикого Билла Хикока — американского героя Дикого Запада, легендарного стрелка и разведчика...

Перевод: Любительский (многоголосый, закадровый) | студия Paradox & Omskbird records
Субтитры: английские

Качество: WEB-DLRip 1080р
Формат: МКV
Видео кодек: AVC
Аудио кодек: АС3
Видео: 1916x800 (2.40:1), 23.976 fps, MPEG-4 AVC ~4 516 kbps avg
Аудио №1: 48.0 kHz, AC3 Dolby Digital, 2/0 (L,R) ch, ~384 kbps | RUS / MVO
Аудио №2: 48.0 kHz, AC3 Dolby Digital, 3/2 (L,C,R,l,r) + LFE ch, ~384 kbps | ENG
Формат субтитров: UTF-8 Plain Text

Дата премьеры (мир): 7 июля 2017

Трейлер


[+] Media Info
General
General
Unique ID                      : 198060290146119370278018149449100698070 (0x9501063C5E396970AC124F2E1B5C21D6)
Complete name                  : Hickok (2017) WEB-DLRip 1080р.mkv
Format                         : Matroska
Format version                 : Version 2
File size                      : 3.33 GiB
Duration                       : 1h 28mn
Overall bit rate               : 5 391 Kbps
Encoded date                   : UTC 2017-10-11 06:10:16
Writing application            : mkvmerge v7.8.0 ('River Man') 32bit built on Apr  3 2015 12:11:22
Writing library                : libebml v1.3.1 + libmatroska v1.4.2

Video
ID                             : 1
Format                         : AVC
Format/Info                    : Advanced Video Codec
Format profile                 : High@L4
Format settings, CABAC         : Yes
Format settings, ReFrames      : 5 frames
Codec ID                       : V_MPEG4/ISO/AVC
Duration                       : 1h 28mn
Bit rate                       : 4 516 Kbps
Width                          : 1 916 pixels
Height                         : 800 pixels
Display aspect ratio           : 2.40:1
Frame rate mode                : Constant
Frame rate                     : 23.976 fps
Color space                    : YUV
Chroma subsampling             : 4:2:0
Bit depth                      : 8 bits
Scan type                      : Progressive
Bits/(Pixel*Frame)             : 0.123
Stream size                    : 2.79 GiB (84%)
Language                       : English
Default                        : Yes
Forced                         : No
Color range                    : Limited
Color primaries                : BT.709
Transfer characteristics       : BT.709
Matrix coefficients            : BT.709

Audio #1
ID                             : 2
Format                         : AC-3
Format/Info                    : Audio Coding 3
Mode extension                 : CM (complete main)
Format settings, Endianness    : Big
Codec ID                       : A_AC3
Duration                       : 1h 28mn
Bit rate mode                  : Constant
Bit rate                       : 384 Kbps
Channel(s)                     : 2 channels
Channel positions              : Front: L R
Sampling rate                  : 48.0 KHz
Compression mode               : Lossy
Stream size                    : 243 MiB (7%)
Title                          : Paradox
Language                       : Russian
Default                        : Yes
Forced                         : Yes

Audio #2
ID                             : 3
Format                         : AC-3
Format/Info                    : Audio Coding 3
Mode extension                 : CM (complete main)
Format settings, Endianness    : Big
Codec ID                       : A_AC3
Duration                       : 1h 28mn
Bit rate mode                  : Constant
Bit rate                       : 384 Kbps
Channel(s)                     : 6 channels
Channel positions              : Front: L C R, Side: L R, LFE
Sampling rate                  : 48.0 KHz
Compression mode               : Lossy
Stream size                    : 243 MiB (7%)
Language                       : English
Default                        : No
Forced                         : No

Text
ID                             : 4
Format                         : UTF-8
Codec ID                       : S_TEXT/UTF8
Codec ID/Info                  : UTF-8 Plain Text
Language                       : English
Default                        : Yes
Forced                         : No

Menu
00:00:00.000                   : en:Chapter 1
00:11:43.536                   : en:Chapter 2
00:23:52.640                   : en:Chapter 3
00:32:37.081                   : en:Chapter 4
00:45:34.525                   : en:Chapter 5
00:57:54.389                   : en:Chapter 6
01:11:23.656                   : en:Chapter 7
01:23:59.870                   : en:Chapter 8



Скриншоты:
[+] Всего файлов в раздаче - 1:
Hickok (2017) WEB-DLRip 1080р.mkv3.33 GB

Текущая раздача:
ДатаКомментарии    РазмерПиры
2017-10-11 U Хикок / Hickok (2017) WEB-DLRip 1080р | L 1 К 3.33 GB ↑ 93 ↓ 62

Похожие раздачи по запросу - хикок:
2017-07-14 U Хикок / Hickok (2017) WEB-DL 720p | L 2.56 GB ↑ 78 ↓ 32
2017-07-13 U Хикок / Hickok (2017) WEB-DL 1080p | L 2.86 GB ↑ 104 ↓ 71
2017-07-13 U Хикок / Hickok (2017) WEB-DLRip | L 1.36 GB ↑ 159 ↓ 94
2017-07-08 U Хикок / Hickok (2017) WEB-DLRip | L 1.37 GB ↑ 372 ↓ 247

Отзывы
dim1590
до Тора его братьям, как до луны, конечно, но молодцы, что хоть стараются.

Зарегистрируйтесь чтобы добавить комментарий.
Обратная связь
Copyleft ©