↑↓Torrent.by
Поиск
Логин: Регистрация
Пароль: Восстановить пароль
Загрузка...

Секс-Трип / The Sex Trip (2017) WEB-DLRip от Portablius | iTunes

Скачать seks-trip-the-sex-2017-web-dlrip-ot-portablius-itunes.torrent
U Магнитная ссылка Размер: 693.77 MB Раздают: 120 Качают: 35 Добавлен: 2017-10-11 22:20:58
Секс-Трип / The Sex Trip (2017) WEB-DLRip от Portablius | iTunes

Название: Секс-Трип
Оригинальное название: The Sex Trip
Год выхода: 2017
Жанр: фэнтези, комедия
Режиссер: Энтони Дж. Коэн
В ролях: Джейд Рэмси, Луис Мэндилор, Марк Крамптон, Шарлотта Эллен Прайс, Рэйчел Бритаг, Наташа Бласик, Ребекка Грант, Джим Хэнкс

О фильме: Всего себя красавчик Эдди Гринлиф посвятил искусству соблазнения женщин. Эдди ведёт тренинги, пишет книги, раздаёт интервью и каждый божий день применяет свои теории на практике, укладывая в свою постель самых привлекательных представительниц прекрасного пола. Однако такая озабоченная-беззаботная жизнь просто не могла длиться вечно и сама судьба в виде уродливой ведьмы наказала Эдди. Как-то раз, направляясь на вечерику, Эдди повстречал старуху, которая потребовала его поцелуй.

Страна: США
Студия: Bridgegate FIlms
Продолжительность: 01:21:59
Перевод: Профессиональный (полное дублирование) | iTunes
Субтитры: Нет

Файл
Кодек: XviD
Качество: WEB-DLRip
Видео: 720x304 (2.37:1), 24 fps, XviD build 73 ~1045 kbps avg, 0.20 bit/pixel
Звук: 48 kHz, MPEG Layer 3, 2 ch, ~128.00 kbps avg


[+] MediaInfo
General
Complete name               : The.Sex.Trip.2017.WEB-DLRip.ot.Portablius.avi
Format                      : AVI
Format/Info                 : Audio Video Interleave
File size                   : 694 MiB
Duration                    : 1 h 21 min
Overall bit rate            : 1 183 kb/s
Writing application         : VirtualDubMod 1.5.10.3 | www.virtualdub-fr.org || (build 2550/release)
Writing library             : VirtualDubMod build 2550/release

Video
ID                          : 0
Format                      : MPEG-4 Visual
Format profile              : Advanced Simple@L5
Format settings, BVOP       : 1
Format settings, QPel       : No
Format settings, GMC        : No warppoints
Format settings, Matrix     : Custom
Codec ID                    : XVID
Codec ID/Hint               : XviD
Duration                    : 1 h 21 min
Bit rate                    : 1 046 kb/s
Width                       : 720 pixels
Height                      : 304 pixels
Display aspect ratio        : 2.35:1
Frame rate                  : 24.000 FPS
Color space                 : YUV
Chroma subsampling          : 4:2:0
Bit depth                   : 8 bits
Scan type                   : Progressive
Compression mode            : Lossy
Bits/(Pixel*Frame)          : 0.199
Stream size                 : 613 MiB (88%)
Writing library             : XviD 73

Audio
ID                          : 1
Format                      : MPEG Audio
Format version              : Version 1
Format profile              : Layer 3
Codec ID                    : 55
Codec ID/Hint               : MP3
Duration                    : 1 h 21 min
Bit rate mode               : Constant
Bit rate                    : 128 kb/s
Channel(s)                  : 2 channels
Sampling rate               : 48.0 kHz
Compression mode            : Lossy
Stream size                 : 75.1 MiB (11%)
Alignment                   : Aligned on interleaves
Interleave, duration        : 42  ms (1.00 video frame)
Interleave, preload duratio : 504  ms
Writing library             : LAME3.99r
Encoding settings           : -m s -V 4 -q 2 -lowpass 17 -b 128




Скриншоты:
[+] Всего файлов в раздаче - 1:
The.Sex.Trip.2017.WEB-DLRip.ot.Portablius.avi693.77 MB

Текущая раздача:
ДатаКомментарии    РазмерПиры
2017-10-11 U Секс-Трип / The Sex Trip (2017) WEB-DLRip от Portablius | iTunes 693.77 MB ↑ 120 ↓ 35

Показать еще раздачи по запросу секс:
2017-12-05 U Практика секса. Экстремальный секс (2014) WEBRip-AVC 138.92 MB ↑ 79 ↓ 38
2017-11-20 U Люсия и секс / Lucia y el sexo (2001) HDRip | P 1.46 GB ↑ 177 ↓ 88
2017-11-17 U Секс, любовь и математика / C'est la tangente que je préfère (1997) DVDRip-AVC | A 1.46 GB ↑ 64 ↓ 21
2017-11-15 U Секс - моя работа (2015) WEBRip 720p | P 303.15 MB ↑ 71 ↓ 21
2017-10-06 U Секс-Трип / The Sex Trip (2017) WEB-DLRip | iTunes 1.45 GB ↑ 172 ↓ 83
2017-10-05 U Секс-Трип / The Sex Trip (2017) WEB-DLRip-AVC | iTunes 1К1.46 GB ↑ 223 ↓ 195
2017-10-05 U Секс-Трип / The Sex Trip (2017) WEB-DLRip-AVC от ExKinoRay | iTunes 746.68 MB ↑ 525 ↓ 222

Отзывы
Зарегистрируйтесь чтобы добавить комментарий.
Обратная связь
Copyleft ©