↑↓Torrent.by
Поиск
Логин: Регистрация
Пароль: Восстановить пароль
Загрузка...

Напарник (2017) WEB-DL 1080p | iTunes

Скачать naparnik-2017-web-dl-1080p-itunes.torrent
U Магнитная ссылка Размер: 3.18 GB Раздают: 373 Качают: 278 Добавлен: 2017-10-12 07:00:52
Напарник (2017) WEB-DL 1080p | iTunes

Название: Напарник
Год выхода: 2017
Жанр: Комедия, приключения
Режиссер: Александр Андрющенко
В ролях: Сергей Гармаш, Андрей Назимов, Лиза Арзамасова, Ксения Лаврова-Глинка, Ян Цапник, Филипп Яицкий, Андрей Золотарев, Сахат Дурсунов, Евгений Коряковский, Юнчен Жуань

О фильме:
Неудачная спецоперация заканчивается для майора Хромова переселением в тело маленького ребенка. И всему виной проклятие гадалки! Но даже пересев из полицейской машины в детскую коляску, он умудряется доставить немало хлопот преступному синдикату на Дальнем Востоке. При этом мама ребенка не подозревает, что ее сын способен вести жесткие допросы, а папа вынужден стать невольным «напарником» Хромова. Ведь для того, чтобы вернуть все на свои места, им предстоит закончить спецоперацию, а значит, отец с младенцем начинают охоту на самого опасного главаря местной мафии.

Страна: Россия
Студия: Кинокомпания СТВ, Кинокомпания «Водород», CGF
Продолжительность: 01:32:35
Перевод: Не требуется [русский язык] ~ iTunes

Файл
Кодек: MPEG4-AVC
Качество: WEB-DL 1080p
Видео: 1920x806, 4440kb/s, 24.000fps
Звук: 384kb/s, 6ch, 48000kHz, AC3
Субтитры: Отсутствуют


[+] MI
Формат                                   : Matroska
Версия формата                           : Version 2
Размер файла                             : 3,18 Гбайт
Продолжительность                        : 1 ч. 32 м.
Общий поток                              : 4921 Кбит/сек
Название фильма                          : Напарник.2017.WEB-DL.[1080p].NNMClub
Дата кодирования                         : UTC 2017-10-11 19:15:13
Программа кодирования                    : mkvmerge v8.3.0 ('Over the Horizon') 64bit
Библиотека кодирования                   : libebml v1.3.1 + libmatroska v1.4.2

Видео
Идентификатор                            : 1
Формат                                   : AVC
Формат/Информация                        : Advanced Video Codec
Профиль формата                          : High@L4
Настройки формата                        : CABAC / 5 Ref Frames
Параметр CABAC формата                   : Да
Параметр RefFrames формата               : 5 кадров
Идентификатор кодека                     : V_MPEG4/ISO/AVC
Продолжительность                        : 1 ч. 32 м.
Битрейт                                  : 4440 Кбит/сек
Ширина                                   : 1920 пикселей
Высота                                   : 806 пикселей
Соотношение сторон                       : 2,40:1
Режим частоты кадров                     : Постоянный
Частота кадров                           : 24,000 кадра/сек
Цветовое пространство                    : YUV
Субдискретизация насыщенности            : 4:2:0
Битовая глубина                          : 8 бит
Тип развёртки                            : Прогрессивная
Бит/(Пиксели*Кадры)                      : 0.120
Размер потока                            : 2,87 Гбайт (90%)
Заголовок                                : Напарник.2017.WEB-DL.[1080p].NNMClub
Язык                                     : Russian
Default                                  : Да
Forced                                   : Нет
Цветовой диапазон                        : Limited
Основные цвета                           : BT.709
Характеристики трансфера                 : BT.709
Коэффициенты матрицы                     : BT.709

Аудио
Идентификатор                            : 2
Формат                                   : AC-3
Формат/Информация                        : Audio Coding 3
Параметр Endianness формата              : Big
Идентификатор кодека                     : A_AC3
Продолжительность                        : 1 ч. 32 м.
Вид битрейта                             : Постоянный
Битрейт                                  : 384 Кбит/сек
Каналы                                   : 6 каналов
Расположение каналов                     : Front: L C R, Side: L R, LFE
Частота                                  : 48,0 КГц
Частота кадров                           : 31,250 кадров/сек (1536 SPF)
Битовая глубина                          : 16 бит
Метод сжатия                             : С потерями
Размер потока                            : 254 Мбайт (8%)
Заголовок                                : iTunes
Язык                                     : Russian
ServiceKind/String                       : Complete Main
Default                                  : Да
Forced                                   : Нет

Меню
00:00:00.000                             : en:Глава 1
00:07:11.958                             : en:Глава 2
00:13:16.041                             : en:Глава 3
00:20:34.041                             : en:Глава 4
00:27:24.874                             : en:Глава 5
00:32:59.874                             : en:Глава 6
00:38:10.749                             : en:Глава 7
00:45:00.332                             : en:Глава 8
00:49:46.832                             : en:Глава 9
00:57:03.165                             : en:Глава 10
01:03:57.123                             : en:Глава 11
01:10:10.123                             : en:Глава 12
01:16:10.081                             : en:Глава 13
01:20:38.581                             : en:Глава 14



Скриншоты:
[+] Всего файлов в раздаче - 1:
Напарник RUS 2017 [WEB-DL 1080p] iTunes.mkv3.18 GB

Текущая раздача:
ДатаКомментарии    РазмерПиры
2017-10-12 U Напарник (2017) WEB-DL 1080p | iTunes 3.18 GB ↑ 373 ↓ 278

Показать еще раздачи по запросу напарник:
2017-10-12 U Напарник (2017) WEB-DLRip-AVC от New-Team | iTunes 746.40 MB ↑ 217 ↓ 55
2017-10-12 U Напарник (2017) WEB-DLRip от Generalfilm | КПК | iTunes 352.16 MB ↑ 112 ↓ 29
2017-10-12 U Напарник (2017) WEB-DLRip от MegaPeer | iTunes 745.49 MB ↑ 453 ↓ 162
2017-10-12 U Напарник (2017) WEB-DLRip-AVC от Generalfilm | iTunes 1.53 GB ↑ 328 ↓ 125
2017-10-12 U Напарник (2017) WEB-DLRip-AVC от New-Team | iTunes 1.55 GB ↑ 252 ↓ 151
2017-10-12 U Напарник (2017) WEB-DL 720p | iTunes 2.86 GB ↑ 199 ↓ 142
2017-10-12 U Напарник (2017) WEB-DLRip от MegaPeer | iTunes 1.46 GB ↑ 578 ↓ 351

Отзывы
Зарегистрируйтесь чтобы добавить комментарий.
Обратная связь
Copyleft ©