↑↓Torrent.by
Поиск
Логин: Регистрация
Пароль: Восстановить пароль
Загрузка...

Физрук [04х01-04 из 21] (2017) HDTV 1080p от Generalfilm

Скачать fizruk-04h01-04-iz-21-2017-hdtv-1080p-ot-generalfilm.torrent
U Магнитная ссылка Размер: 4.49 GB Раздают: 109 Качают: 225 Добавлен: 2017-10-12 12:06:21
Физрук [04х01-04 из 21] (2017) HDTV 1080p от Generalfilm

Название: Физрук  Сезон: 4
Год выпуска: 2017

Страна: Россия
Жанр: комедия

Перевод: Не требуется [Русский]
Продолжительность: 00:23:52 Серия
Режиссер: Сергей Сенцов , Фёдор Стуков , Дмитрий Губарев
В ролях: Дмитрий Нагиев (Фома), Александр Гордон (Мамай), Полина Гренц (Саша Мамаева), Анастасия Панина (Татьяна Александровна), Владимир Сычев (Псих), Даниил Вахрушев (Валя Вялых), Андрей Крыжний (Банан), Артур Сопельник (Антон «Борзый»), Оксана Сидоренко (Полина), Карина Мишулина (Света), Роман Индык (Альберт Моисеевич), Елена Муравьева (Эльвира Петровна)

Описание:
Это история о столкновении двух времен: «лихих» 90-х и «стабильных» десятых. Главный герой Фома всю жизнь был «правой рукой» влиятельного человека с полукриминальным прошлым. Когда «хозяин» выгнал его на пенсию, Фома решил любым способом вернуться обратно. Сначала казалось, что все будет просто: подобраться к ребенку бывшего босса, прогнуться, напомнить о себе и вернуться в дело. Но план Фомы рушится в первый же день. В школе ему приходится задержаться надолго. Попав в абсолютно незнакомый мир детей и учителей, который кардинально отличается от привычного ему круга, Фома не только меняет свою жизнь, но и меняется сам.

Качество: HDTV 1080p
Формат: MKV
Видео: AVC, 1920x1080 (16:9), 7050 kbps, 25 fps, 0,136 bpp
Аудио: AC3 / 2.0 / 48 kHz / 192 kbps /

Релиз:
[+] ОтчетМедиаИнфо

General
Unique ID                                : 89963142494722761187931641742401450648 (0x43AE4560660C167FCFAE087DDB6FB298)
Complete name                            : E:Fizruk  S04.2017.HDTV.1080p.R.G.GeneralfilmFizruk..s04.e01.2017.HDTV 1080p.by.White Smoke.R.G.Generalfilm.mkv
Format                                   : Matroska
Format version                           : Version 2
File size                                : 1.21 GiB
Duration                                 : 23 min
Overall bit rate mode                    : Constant
Overall bit rate                         : 7 246 kb/s
Writing application                      : Lavf54.63.104
Writing library                          : Lavf54.63.104 / Lavf54.63.104

Video
ID                                       : 1
Format                                   : AVC
Format/Info                              : Advanced Video Codec
Format profile                           : High@L4.1
Format settings, CABAC                   : Yes
Format settings, ReFrames                : 3 frames
Codec ID                                 : V_MPEG4/ISO/AVC
Duration                                 : 23 min
Bit rate mode                            : Constant
Bit rate                                 : 7 051 kb/s
Width                                    : 1 920 pixels
Height                                   : 1 080 pixels
Display aspect ratio                     : 16:9
Frame rate mode                          : Constant
Frame rate                               : 25.000 FPS
Standard                                 : PAL
Color space                              : YUV
Chroma subsampling                       : 4:2:0
Bit depth                                : 8 bits
Scan type                                : Progressive
Bits/(Pixel*Frame)                       : 0.136
Stream size                              : 1.15 GiB (95%)
Default                                  : No
Forced                                   : No
Color range                              : Limited
Color primaries                          : BT.709
Transfer characteristics                 : BT.709
Matrix coefficients                      : BT.709

Audio
ID                                       : 2
Format                                   : AC-3
Format/Info                              : Audio Coding 3
Mode extension                           : CM (complete main)
Format settings, Endianness              : Big
Codec ID                                 : A_AC3
Duration                                 : 23 min
Bit rate mode                            : Constant
Bit rate                                 : 192 kb/s
Channel(s)                               : 2 channels
Channel positions                        : Front: L R
Sampling rate                            : 48.0 kHz
Frame rate                               : 31.250 FPS (1536 spf)
Compression mode                         : Lossy
Stream size                              : 32.8 MiB (3%)
Default                                  : Yes
Forced                                   : No



Скриншоты:
[+] Всего файлов в раздаче - 4:
Fizruk..s04.e01.2017.HDTV 1080p.by.White Smoke.R.G.Generalfilm.mkv1.21 GB
Fizruk..s04.e04.2017.HDTV 1080p.by.White Smoke.R.G.Generalfilm.mkv1.17 GB
Fizruk..s04.e02.2017.HDTV 1080p.by.White Smoke.R.G.Generalfilm.mkv1.16 GB
Fizruk..s04.e03.2017.HDTV 1080p.by.White Smoke.R.G.Generalfilm.mkv977.24 MB

Текущая раздача:
ДатаКомментарии    РазмерПиры
2017-10-12 U Физрук [04х01-04 из 21] (2017) HDTV 1080p от Generalfilm 4.49 GB ↑ 109 ↓ 225

Показать ещё раздачи по запросу - физрук:
2017-10-20 U Физрук [04х01-09 из 21] (2017) WEB-DLRip-AVC от Files-x 2.59 GB ↑ 100 ↓ 411
2017-10-20 U Физрук [04х01-09 из 21] (2017) HDTV 1080p от Generalfilm 10.33 GB ↑ 99 ↓ 332
2017-10-20 U Физрук [04х01-09 из 20] (2017) HDTVRip 720p от MediaClub 5.27 GB ↑ 0 ↓ 22
2017-10-20 U Физрук [04x01-09 из 21] (2017) HDTVRip от GeneralFilm 1.86 GB ↑ 44 ↓ 139
2017-10-20 U Физрук [04x01-09 из 20] (2017) WEB-DLRip от Files-x 2.62 GB ↑ 51 ↓ 211
2017-10-20 U Физрук [04х01-09 из 20] (2017) HDTV 1080i от MediaClub 10.94 GB ↑ 44 ↓ 311
2017-10-20 U Физрук [04х01-09 из 21] (2017) HDTVRip-AVC от GeneralFilm 3.13 GB ↑ 57 ↓ 107

Отзывы
Зарегистрируйтесь чтобы добавить комментарий.
Обратная связь
Copyleft ©