↑↓Torrent.by
Поиск
Логин: Регистрация
Пароль: Восстановить пароль
Загрузка...

Снайпер: Идеальное убийство / Sniper: Ultimate Kill (2017) BDRip-AVC от New-Team | Лицензия

Скачать snayper-idealnoe-ubiystvo-sniper-ultimate-kill-2017-bdrip-avc-ot-new-team-licenziya.torrent
U Магнитная ссылка Размер: 2.91 GB Раздают: 112 Качают: 59 Добавлен: 2017-10-12 21:01:27
Снайпер: Идеальное убийство / Sniper: Ultimate Kill (2017) BDRip-AVC от New-Team | Лицензия

Наша группа ВКонтакте
Присоединяйтесь!

Снайпер: Идеальное убийство
Sniper: Ultimate Kill

«This time, weapons change the game»

Страна: США
Жанр:  боевик, триллер, драма
Год выпуска: 2017
Продолжительность: 01:33:18

Перевод: Профессиональный (многоголосый, закадровый) [Blu-ray EUR]
Субтитры: русские (полные), английские (полные, SDH, SDH цветные)
Оригинальная аудиодорожка: английский

Режиссер: Клаудио Фах / Claudio Fäh

В ролях: Билли Зейн, Том Беренджер, Денай Гарсиа, Джо Ландо, Хуан Себастьян Калеро, Чад Коллинз, Хуан Пабло Гамбоа, Фелипе Калеро, Лучо Веласко

Описание:
Глава колумбийского наркокартеля объединят в своих руках все каналы доставки наркотиков в США. Его врагов уничтожает суперснайпер по кличке «Дьявол». Агентство по борьбе с наркотиками отправляет на борьбу с ними спецагента под прикрытием, опытного снайпера из морской разведки.

Релиз:

Автор рипа: stalkerok

Семпл

Качество видео: BDRip-AVC [Sniper: Ultimate Kill (2017) Blu-ray EUR 1080p]
Формат видео: MKV
Видео кодек: AVC
Аудио кодек: AC3
Видео: 3563 Кбит/сек, 1152*480 (2,40:1), в 23,976 (24000/1001) кадра/сек, AVC
Аудио #1: русский, 448 Кбит/сек, 48 КГц, 5.1, AC3
Аудио #2: английский, 448 Кбит/сек, 48 КГц, 5.1, AC3
Навигация по главам: есть


[+] x264/MediaInfo


x264 [info]: frame I:1104  Avg QP:18.00  size: 78165
x264 [info]: frame P:26991 Avg QP:20.04  size: 36517
x264 [info]: frame B:106135 Avg QP:21.57  size: 13395

Общее
Уникальный идентификатор                 : 224798927603435095297604617175480217576 (0xA91EB2D859F129E6B6C23CA1BCFD2FE8)
Полное имя                               : M:!Rips2017Sniper Ultimate KillSniper.Ultimate.Kill.2017.BDRip-AVC.RUS.ENG.stalkerok.new-team.mkv
Формат                                   : Matroska
Версия формата                           : Version 4 / Version 2
Размер файла                             : 2,91 Гбайт
Продолжительность                        : 1 ч. 33 м.
Общий поток                              : 4462 Кбит/сек
Название фильма                          : Sniper: Ultimate Kill (2017) (Rip by stalkerok)
Дата кодирования                         : UTC 2017-10-11 20:54:45
Программа кодирования                    : mkvmerge v8.6.1 ('Flying') 64bit
Библиотека кодирования                   : libebml v1.3.3 + libmatroska v1.4.4

Видео
Идентификатор                            : 1
Формат                                   : AVC
Формат/Информация                        : Advanced Video Codec
Профиль формата                          : High@L4.1
Параметр CABAC формата                   : Да
Параметр ReFrames формата                : 13 кадров
Идентификатор кодека                     : V_MPEG4/ISO/AVC
Продолжительность                        : 1 ч. 33 м.
Битрейт                                  : 3563 Кбит/сек
Ширина                                   : 1152 пикселя
Высота                                   : 480 пикселей
Соотношение сторон                       : 2,40:1
Режим частоты кадров                     : Постоянный
Частота кадров                           : 23,976 (24000/1001) кадра/сек
Цветовое пространство                    : YUV
Субдискретизация насыщенности            : 4:2:0
Битовая глубина                          : 8 бит
Тип развёртки                            : Прогрессивная
Бит/(Пиксели*Кадры)                      : 0.269
Размер потока                            : 2,32 Гбайт (80%)
Заголовок                                : Sniper: Ultimate Kill (2017) (Rip by stalkerok)
Библиотека кодирования                   : x264 core 150 r2833kMod df79067
Настройки программы                      : cabac=1 / ref=13 / deblock=1:-3:-2 / analyse=0x3:0x133 / me=umh / subme=11 / psy=1 / fade_compensate=0.00 / psy_rd=1.00:0.00 / mixed_ref=1 / me_range=32 / chroma_me=1 / trellis=2 / 8x8dct=1 / cqm=0 / deadzone=21,11 / fast_pskip=0 / chroma_qp_offset=-2 / threads=12 / lookahead_threads=3 / sliced_threads=0 / nr=0 / decimate=1 / interlaced=0 / bluray_compat=0 / constrained_intra=0 / bframes=13 / b_pyramid=2 / b_adapt=2 / b_bias=0 / direct=3 / weightb=1 / open_gop=0 / weightp=2 / keyint=240 / keyint_min=23 / scenecut=40 / intra_refresh=0 / rc_lookahead=60 / rc=crf / mbtree=0 / crf=18.8000 / qcomp=0.65 / qpmin=0 / qpmax=69 / qpstep=4 / vbv_maxrate=50000 / vbv_bufsize=62500 / crf_max=0.0 / nal_hrd=none / filler=0 / ip_ratio=1.40 / pb_ratio=1.30 / aq=3:0.80 / zones=129824,134229,q=33
Default                                  : Да
Forced                                   : Нет

Аудио #1
Идентификатор                            : 2
Формат                                   : AC-3
Формат/Информация                        : Audio Coding 3
Расширение режима                        : CM (complete main)
Параметр Endianness формата              : Big
Идентификатор кодека                     : A_AC3
Продолжительность                        : 1 ч. 33 м.
Вид битрейта                             : Постоянный
Битрейт                                  : 448 Кбит/сек
Каналы                                   : 6 каналов
Расположение каналов                     : Front: L C R, Side: L R, LFE
Частота                                  : 48,0 КГц
Частота кадров                           : 31,250 кадров/сек (1536 spf)
Метод сжатия                             : С потерями
Размер потока                            : 299 Мбайт (10%)
Язык                                     : Russian
Default                                  : Да
Forced                                   : Нет

Аудио #2
Идентификатор                            : 3
Формат                                   : AC-3
Формат/Информация                        : Audio Coding 3
Расширение режима                        : CM (complete main)
Параметр Endianness формата              : Big
Идентификатор кодека                     : A_AC3
Продолжительность                        : 1 ч. 33 м.
Вид битрейта                             : Постоянный
Битрейт                                  : 448 Кбит/сек
Каналы                                   : 6 каналов
Расположение каналов                     : Front: L C R, Side: L R, LFE
Частота                                  : 48,0 КГц
Частота кадров                           : 31,250 кадров/сек (1536 spf)
Метод сжатия                             : С потерями
Размер потока                            : 299 Мбайт (10%)
Язык                                     : English
Default                                  : Нет
Forced                                   : Нет

Текст #1
Идентификатор                            : 4
Формат                                   : UTF-8
Идентификатор кодека                     : S_TEXT/UTF8
Идентификатор кодека/Информация          : UTF-8 Plain Text
Продолжительность                        : 1 ч. 25 м.
Битрейт                                  : 75 бит/сек
Count of elements                        : 927
Размер потока                            : 47,1 Кбайт (0%)
Язык                                     : Russian
Default                                  : Нет
Forced                                   : Нет

Текст #2
Идентификатор                            : 5
Формат                                   : UTF-8
Идентификатор кодека                     : S_TEXT/UTF8
Идентификатор кодека/Информация          : UTF-8 Plain Text
Продолжительность                        : 1 ч. 24 м.
Битрейт                                  : 51 бит/сек
Count of elements                        : 896
Размер потока                            : 31,7 Кбайт (0%)
Язык                                     : English
Default                                  : Нет
Forced                                   : Нет

Текст #3
Идентификатор                            : 6
Формат                                   : UTF-8
Идентификатор кодека                     : S_TEXT/UTF8
Идентификатор кодека/Информация          : UTF-8 Plain Text
Продолжительность                        : 1 ч. 29 м.
Битрейт                                  : 52 бит/сек
Count of elements                        : 1020
Размер потока                            : 34,7 Кбайт (0%)
Заголовок                                : SDH
Язык                                     : English
Default                                  : Нет
Forced                                   : Нет

Текст #4
Идентификатор                            : 7
Формат                                   : UTF-8
Идентификатор кодека                     : S_TEXT/UTF8
Идентификатор кодека/Информация          : UTF-8 Plain Text
Продолжительность                        : 1 ч. 29 м.
Битрейт                                  : 76 бит/сек
Count of elements                        : 1020
Размер потока                            : 50,2 Кбайт (0%)
Заголовок                                : SDH Colored
Язык                                     : English
Default                                  : Нет
Forced                                   : Нет

Меню
00:00:00.000                             : en:Chapter 1
00:04:19.634                             : en:Chapter 2
00:09:10.258                             : en:Chapter 3
00:16:38.956                             : en:Chapter 4
00:26:19.828                             : en:Chapter 5
00:31:34.559                             : en:Chapter 6
00:37:23.241                             : en:Chapter 7
00:44:08.771                             : en:Chapter 8
00:48:09.928                             : en:Chapter 9
00:51:42.307                             : en:Chapter 10
00:56:47.320                             : en:Chapter 11
01:04:21.232                             : en:Chapter 12
01:11:19.400                             : en:Chapter 13
01:15:25.395                             : en:Chapter 14
01:19:42.778                             : en:Chapter 15
01:25:53.898                             : en:Chapter 16




Скриншоты:
[+] Всего файлов в раздаче - 1:
Sniper.Ultimate.Kill.2017.BDRip-AVC.RUS.ENG.stalkerok.new-team.mkv2.91 GB

Текущая раздача:
ДатаКомментарии    РазмерПиры
2017-10-12 U Снайпер: Идеальное убийство / Sniper: Ultimate Kill (2017) BDRip-AVC от New-Team | Лицензия 2.91 GB ↑ 112 ↓ 59

Показать ещё раздачи по запросу - снайпер:
2017-10-17 U Снайпер: Идеальное убийство / Sniper: Ultimate Kill (2017) BDRip от HQCLUB | P | Лицензия 1.45 GB ↑ 117 ↓ 62
2017-10-14 U Снайпер: Идеальное убийство / Sniper: Ultimate Kill (2017) BDRip 720p от HELLYWOOD | Лицензия 5.76 GB ↑ 58 ↓ 23
2017-10-13 U Снайпер: Идеальное убийство / Sniper: Ultimate Kill (2017) BDRip-AVC от HELLYWOOD | Лицензия 1К1.46 GB ↑ 142 ↓ 55
2017-10-12 U Снайпер: Идеальное убийство / Sniper: Ultimate Kill (2017) BDRip-AVC от New-Team | Лицензия 1.47 GB ↑ 106 ↓ 40
2017-10-08 U Снайпер: Идеальное убийство / Sniper: Ultimate Kill (2017) BDRip-AVC от ExKinoRay | Лицензия 745.01 MB ↑ 79 ↓ 17
2017-10-08 U Снайпер: Идеальное убийство / Sniper: Ultimate Kill (2017) BDRip-AVC от OlLanDGroup | Лицензия 2.42 GB ↑ 232 ↓ 116
2017-10-07 U Снайпер: Идеальное убийство / Sniper: Ultimate Kill (2017) Blu-ray EUR 1080p | Лицензия 24.81 GB ↑ 101 ↓ 80

Отзывы
Зарегистрируйтесь чтобы добавить комментарий.
Обратная связь
Copyleft ©