↑↓Torrent.by
Поиск
Логин: Регистрация
Пароль: Восстановить пароль
Загрузка...

Клятва / Eiðurinn (2016) BDRemux 1080р | iTunes

Скачать klyatva-ei-urinn-2016-bdremux-1080r-itunes.torrent
U Магнитная ссылка Размер: 14.29 GB Раздают: 96 Качают: 82 Добавлен: 2017-10-12 21:11:59
Клятва / Eiðurinn (2016) BDRemux 1080р | iTunes

Название: Клятва
Оригинальное название: Eidurinn
Год выхода: 2016
Жанр: Драма, Триллер, Криминал
Режиссер: Бальтасар Кормакур
В ролях: Гера Хилмарсдоттир, Бальтасар Кормакур, Гисли Орн Гардарссон, Ингвар Эггерт Сигюрдссон, Торстейнн Бахман, Торстейнн Гуннарссон

О фильме:
В жизни известного хирурга Финнура наступила черная полоса — он подозревает, что его старшая дочь Анна попала в дурную компанию, что ее новый бойфренд Оттар, на котором клейма негде ставить, приторговывает наркотиками и тянет дочь в пропасть. Необходимо предпринимать срочные меры — сделать всё, чтобы отвадить подонка от дочери. Сказано — сделано: и в доме у Оттара полиция находит мешок с кокаином, сам он арестован. Увы, парня быстро отпускают, а весь свой убыток — с процентами — он перекладывает на Финнура, угрожая пустить Анну по рукам. В полиции врача слушать не хотят, и он приходит к выводу, что придется на время забыть о клятве Гиппократа. Слишком поздно Финнур поймет, что у вступившего на путь насилия обратной дороги не будет…

 
Страна: Исландия
Студия: RVK Studios
Продолжительность: 01:43:57
Перевод: Многоголосый закадровый (iTunes), двуголосый закадровый, любительский (ViruseProject)

Файл
Кодек: MPEG-4 AVC
Качество: BDRemux 1080р | iTunes
Видео: AVC/H.264, 1920x1080, ~14,4 Мbps
Звук:
Аудио 1: AC3, 6 ch, 384 Kbps - Русский (MVO | iTunes)
Аудио 2: DTS-HD MA, 6 ch, ~1850 kbps - Русский (DVO | ViruseProject)
Аудио 3: DTS-HD MA, 6 ch, ~3072 kbps - Исландский
Субтитры: Русские, немецкие


[+] Mediainfo
Общее
Уникальный идентификатор                 : 202295711653639423112976156789966426138 (0x9830BCA37A8C1DF99F5EE3383428D01A)
Полное имя                               : Eidurinn.2016.BDRemux.mkv
Формат                                   : Matroska
Версия формата                           : Version 4 / Version 2
Размер файла                             : 14,3 Гбайт
Продолжительность                        : 1 ч. 43 м.
Режим общего битрейта                    : Переменный
Общий поток                              : 19,7 Мбит/сек
Дата кодирования                         : UTC 2017-10-11 18:50:37
Программа кодирования                    : mkvmerge v15.0.0 ('Duel with the Devil') 64-bit
Библиотека кодирования                   : libebml v1.3.5 + libmatroska v1.4.5

Видео
Идентификатор                            : 1
Формат                                   : AVC
Формат/Информация                        : Advanced Video Codec
Профиль формата                          : High@L4.1
Настройки формата                        : CABAC / 2 Ref Frames
Параметр CABAC формата                   : Да
Параметр RefFrames формата               : 2 кадра
Параметр GOP формата                     : M=3, N=23
Идентификатор кодека                     : V_MPEG4/ISO/AVC
Продолжительность                        : 1 ч. 43 м.
Вид битрейта                             : Переменный
Битрейт                                  : 14,4 Мбит/сек
Максимальный битрейт                     : 28,6 Мбит/сек
Ширина                                   : 1920 пикселей
Высота                                   : 1080 пикселей
Соотношение сторон                       : 16:9
Режим частоты кадров                     : Постоянный
Частота кадров                           : 24,000 кадра/сек
Цветовое пространство                    : YUV
Субдискретизация насыщенности            : 4:2:0
Битовая глубина                          : 8 бит
Тип развёртки                            : Прогрессивная
Бит/(Пиксели*Кадры)                      : 0.289
Размер потока                            : 10,5 Гбайт (73%)
Язык                                     : Icelandic
Default                                  : Да
Forced                                   : Нет

Аудио #1
Идентификатор                            : 2
Формат                                   : AC-3
Формат/Информация                        : Audio Coding 3
Параметр Endianness формата              : Big
Идентификатор кодека                     : A_AC3
Продолжительность                        : 1 ч. 43 м.
Вид битрейта                             : Постоянный
Битрейт                                  : 384 Кбит/сек
Каналы                                   : 6 каналов
Расположение каналов                     : Front: L C R, Side: L R, LFE
Частота                                  : 48,0 КГц
Частота кадров                           : 31,250 кадров/сек (1536 SPF)
Битовая глубина                          : 16 бит
Метод сжатия                             : С потерями
Размер потока                            : 285 Мбайт (2%)
Заголовок                                : MVO [iTunes]
Язык                                     : Russian
ServiceKind                              : Complete Main
Default                                  : Да
Forced                                   : Нет

Аудио #2
Идентификатор                            : 3
Формат                                   : DTS
Формат/Информация                        : Digital Theater Systems
Профиль формата                          : MA / Core
Режим                                    : 16
Параметр Endianness формата              : Big
Идентификатор кодека                     : A_DTS
Продолжительность                        : 1 ч. 43 м.
Вид битрейта                             : Переменный / Постоянный
Битрейт                                  : 1850 Кбит/сек / 1509 Кбит/сек
Каналы                                   : 6 каналов
Расположение каналов                     : Front: L C R, Side: L R, LFE
Частота                                  : 48,0 КГц
Частота кадров                           : 93,750 кадра/сек (512 SPF)
Битовая глубина                          : 16 бит
Метод сжатия                             : Без потерь / Lossy
Размер потока                            : 1,34 Гбайт (9%)
Заголовок                                : MVO [ViruseProject]
Язык                                     : Russian
Default                                  : Нет
Forced                                   : Нет

Аудио #3
Идентификатор                            : 4
Формат                                   : DTS
Формат/Информация                        : Digital Theater Systems
Профиль формата                          : MA / Core
Режим                                    : 16
Параметр Endianness формата              : Big
Идентификатор кодека                     : A_DTS
Продолжительность                        : 1 ч. 43 м.
Вид битрейта                             : Переменный / Постоянный
Битрейт                                  : 3072 Кбит/сек / 1509 Кбит/сек
Каналы                                   : 6 каналов
Расположение каналов                     : Front: L C R, Side: L R, LFE
Частота                                  : 48,0 КГц
Частота кадров                           : 93,750 кадра/сек (512 SPF)
Битовая глубина                          : 24 бит
Метод сжатия                             : Без потерь / Lossy
Размер потока                            : 2,21 Гбайт (15%)
Язык                                     : Icelandic
Default                                  : Нет
Forced                                   : Нет

Текст #1
Идентификатор                            : 5
Формат                                   : UTF-8
Идентификатор кодека                     : S_TEXT/UTF8
Идентификатор кодека/Информация          : UTF-8 Plain Text
Продолжительность                        : 1 ч. 40 м.
Битрейт                                  : 54 бит/сек
ElementCount                             : 902
Размер потока                            : 39,7 Кбайт (0%)
Язык                                     : Russian
Default                                  : Нет
Forced                                   : Нет

Текст #2
Идентификатор                            : 6
Формат                                   : UTF-8
Идентификатор кодека                     : S_TEXT/UTF8
Идентификатор кодека/Информация          : UTF-8 Plain Text
Продолжительность                        : 1 ч. 38 м.
Битрейт                                  : 41 бит/сек
ElementCount                             : 914
Размер потока                            : 29,9 Кбайт (0%)
Язык                                     : German
Default                                  : Нет
Forced                                   : Нет

Меню
00:00:00.000                             : en:Chapter 1
00:08:50.375                             : en:Chapter 2
00:16:55.500                             : en:Chapter 3
00:27:53.458                             : en:Chapter 4
00:34:31.041                             : en:Chapter 5
00:42:36.541                             : en:Chapter 6
00:52:17.208                             : en:Chapter 7
00:59:33.250                             : en:Chapter 8
01:09:01.207                             : en:Chapter 9
01:18:03.291                             : en:Chapter 10
01:26:04.332                             : en:Chapter 11
01:35:07.500                             : en:Chapter 12
01:40:52.041                             : en:Chapter 13
01:43:54.416                             : en:Chapter 14  



Скриншоты:
[+] Всего файлов в раздаче - 1:
Eidurinn.2016.BDRemux.mkv14.29 GB

Текущая раздача:
ДатаКомментарии    РазмерПиры
2017-10-12 U Клятва / Eiðurinn (2016) BDRemux 1080р | iTunes 14.29 GB ↑ 96 ↓ 82

Показать ещё раздачи по запросу - клятва:
2017-10-14 U Клятва / Eidurinn (2016) HDRip от Scarabey | iTunes 1.41 GB ↑ 73 ↓ 20
2017-10-12 U Клятва / Eiðurinn / The Oath (2016) BDRip-AVC от OlLanDGroup | iTunes 1.30 GB ↑ 96 ↓ 33
2017-10-12 U Клятва / Eiðurinn (2016) BDRip-AVC от ExKinoRay | iTunes 754.67 MB ↑ 105 ↓ 37
2017-10-12 U Клятва / Eidurinn (2016) BDRip от MegaPeer | iTunes 1.41 GB ↑ 60 ↓ 24
2017-08-18 U Клятва / Eiðurinn / The Oath (2016) BDRip 1080p | P2 4.94 GB ↑ 46 ↓ 17
2017-08-17 U Клятва / Eiðurinn / The Oath (2016) BDRip 720p | ViruseProject 2.05 GB ↑ 64 ↓ 14
2017-08-03 U Клятва / Eiðurinn / The Oath (2016) HDRip | ViruseProject 1.74 GB ↑ 119 ↓ 103

Отзывы
Зарегистрируйтесь чтобы добавить комментарий.
Обратная связь
Copyleft ©