↑↓Torrent.by
Поиск
Логин: Регистрация
Пароль: Восстановить пароль
Загрузка...

Планета обезьян: Война / War for the Planet of the Apes (2017) BDRip 720p от ExKinoRay | D, L1 | iTunes

Скачать planeta-obezyan-voyna-war-for-the-planet-of-apes-2017-bdrip-720p-ot-exkinoray-d-l1-itunes.torrent
U Магнитная ссылка Размер: 6.76 GB Раздают: 780 Качают: 472 Добавлен: 2017-10-13 06:45:55
Планета обезьян: Война / War for the Planet of the Apes (2017) BDRip 720p от ExKinoRay | D, L1 | iTunes

Название: Планета обезьян: Война
Оригинальное название: War for the Planet of the Apes
Год выхода: 2017
Жанр: Фантастика, боевик, триллер, приключения
Режиссер: Мэтт Ривз
В ролях: Энди Серкис, Вуди Харрельсон, Стив Зан, Карин Коновал, Амайя Миллер, Терри Нотари, Тай Олссон, Майкл Адамуэйт, Тоби Кеббелл, Гэбриел Чаварриа

О фильме:
Армию генетически модифицированных обезьян ожидает новый вызов: они вынуждены вступить в смертельную схватку с армией людей под руководством безжалостного полковника. После невообразимых потерь среди своих воинов вождь обезьян Цезарь начинает личную борьбу с темными инстинктами и собирается отомстить за весь свой вид. В конце концов он и полковник должны будут сойтись в эпической битве, которая решит, кто теперь будет править на Земле — люди или обезьяны.

Страна: США
Студия: Chernin Entertainment, River Road Entertainment, TSG Entertainment
Продолжительность: 02:20:10
Перевод (ы):
#1: Дублированный | iTunes
#2: Любительский одноголосый | BadBajo

Файл
Качество: BDRip 720p
Видео: MPEG-4 AVC, 1280x534, 5500 Kbit/s, 23.976 fps
Звук:
Аудио #01: 48 kHz, AC3, 5.1, 384 Kbps | iTunes | RUS |
Аудио #02: 48 kHz, AC3, 5.1, 384 Kbps | BadBajo | RUS |
Аудио #03: 48 kHz, AC3, 5.1, 640 Kbps | Оригинал |  ENG |
Субтитры: Русские (forced, full), английские

Релиз: Автор релиза:


[+] MI
General
Unique ID                   : 250364164307830670703435872125454387161 (0xBC5A6254A7063E03A52C6FFC0D9007D9)
Complete name               : F:VideoSSDWar.for.the.Planet.of.the.Apes.2017.BDRip.720p.ExKinoRay.mkv
Format                      : Matroska
Format version              : Version 4 / Version 2
File size                   : 6.76 GiB
Duration                    : 2 h 20 min
Overall bit rate            : 6 904 kb/s
Encoded date                : UTC 2017-10-12 18:31:17
Writing application         : mkvmerge v16.0.0 ('Protest') 64-bit
Writing library             : libebml v1.3.5 + libmatroska v1.4.8

Video
ID                          : 1
Format                      : AVC
Format/Info                 : Advanced Video Codec
Format profile              : High@L4.1
Format settings             : CABAC / 12 Ref Frames
Format settings, CABAC      : Yes
Format settings, RefFrames  : 12 frames
Codec ID                    : V_MPEG4/ISO/AVC
Duration                    : 2 h 20 min
Bit rate                    : 5 500 kb/s
Width                       : 1 280 pixels
Height                      : 534 pixels
Display aspect ratio        : 2.40:1
Frame rate mode             : Constant
Frame rate                  : 23.976 (24000/1001) FPS
Color space                 : YUV
Chroma subsampling          : 4:2:0
Bit depth                   : 8 bits
Scan type                   : Progressive
Bits/(Pixel*Frame)          : 0.336
Stream size                 : 5.38 GiB (80%)
Writing library             : x264 core 148 r2665kMod a01e339
Encoding settings           : cabac=1 / ref=12 / deblock=1:-3:-3 / analyse=0x3:0x133 / me=umh / subme=11 / psy=1 / fade_compensate=0.00 / psy_rd=1.05:0.00 / mixed_ref=1 / me_range=32 / chroma_me=1 / trellis=2 / 8x8dct=1 / cqm=0 / deadzone=21,11 / fast_pskip=0 / chroma_qp_offset=-2 / threads=17 / lookahead_threads=2 / sliced_threads=0 / nr=0 / decimate=0 / interlaced=0 / bluray_compat=0 / constrained_intra=0 / fgo=0 / bframes=8 / b_pyramid=2 / b_adapt=2 / b_bias=0 / direct=3 / weightb=1 / open_gop=0 / weightp=2 / keyint=240 / keyint_min=24 / scenecut=40 / intra_refresh=0 / rc=2pass / mbtree=0 / bitrate=5500 / ratetol=1.0 / qcomp=0.70 / qpmin=0 / qpmax=69 / qpstep=4 / cplxblur=20.0 / qblur=0.5 / ip_ratio=1.20 / pb_ratio=1.20 / aq=3:0.85
Language                    : English
Default                     : Yes
Forced                      : No

Audio #1
ID                          : 2
Format                      : AC-3
Format/Info                 : Audio Coding 3
Format settings, Endianness : Big
Codec ID                    : A_AC3
Duration                    : 2 h 20 min
Bit rate mode               : Constant
Bit rate                    : 384 kb/s
Channel(s)                  : 6 channels
Channel positions           : Front: L C R, Side: L R, LFE
Sampling rate               : 48.0 kHz
Frame rate                  : 31.250 FPS (1536 SPF)
Bit depth                   : 16 bits
Compression mode            : Lossy
Stream size                 : 385 MiB (6%)
Title                       : iTunes
Language                    : Russian
Service kind                : Complete Main
Default                     : Yes
Forced                      : No

Audio #2
ID                          : 3
Format                      : AC-3
Format/Info                 : Audio Coding 3
Format settings, Endianness : Big
Codec ID                    : A_AC3
Duration                    : 2 h 20 min
Bit rate mode               : Constant
Bit rate                    : 384 kb/s
Channel(s)                  : 6 channels
Channel positions           : Front: L C R, Side: L R, LFE
Sampling rate               : 48.0 kHz
Frame rate                  : 31.250 FPS (1536 SPF)
Bit depth                   : 16 bits
Compression mode            : Lossy
Stream size                 : 385 MiB (6%)
Title                       : BadBajo
Language                    : Russian
Service kind                : Complete Main
Default                     : No
Forced                      : No

Audio #3
ID                          : 4
Format                      : AC-3
Format/Info                 : Audio Coding 3
Format settings, Endianness : Big
Codec ID                    : A_AC3
Duration                    : 2 h 20 min
Bit rate mode               : Constant
Bit rate                    : 640 kb/s
Channel(s)                  : 6 channels
Channel positions           : Front: L C R, Side: L R, LFE
Sampling rate               : 48.0 kHz
Frame rate                  : 31.250 FPS (1536 SPF)
Bit depth                   : 16 bits
Compression mode            : Lossy
Stream size                 : 642 MiB (9%)
Title                       : Original
Language                    : English
Service kind                : Complete Main
Default                     : No
Forced                      : No

Text #1
ID                          : 5
Format                      : UTF-8
Codec ID                    : S_TEXT/UTF8
Codec ID/Info               : UTF-8 Plain Text
Duration                    : 2 h 18 min
Bit rate                    : 8 b/s
Count of elements           : 220
Stream size                 : 8.96 KiB (0%)
Title                       : Forced
Language                    : Russian
Default                     : Yes
Forced                      : No

Text #2
ID                          : 6
Format                      : UTF-8
Codec ID                    : S_TEXT/UTF8
Codec ID/Info               : UTF-8 Plain Text
Duration                    : 2 h 18 min
Bit rate                    : 28 b/s
Count of elements           : 797
Stream size                 : 28.5 KiB (0%)
Title                       : Full
Language                    : Russian
Default                     : No
Forced                      : No

Text #3
ID                          : 7
Format                      : UTF-8
Codec ID                    : S_TEXT/UTF8
Codec ID/Info               : UTF-8 Plain Text
Duration                    : 2 h 8 min
Bit rate                    : 16 b/s
Count of elements           : 748
Stream size                 : 15.5 KiB (0%)
Title                       : Full
Language                    : English
Default                     : No
Forced                      : No

Text #4
ID                          : 8
Format                      : UTF-8
Codec ID                    : S_TEXT/UTF8
Codec ID/Info               : UTF-8 Plain Text
Duration                    : 2 h 9 min
Bit rate                    : 20 b/s
Count of elements           : 1010
Stream size                 : 19.8 KiB (0%)
Title                       : SDH
Language                    : English
Default                     : No
Forced                      : No

Menu
00:00:00.000                : en:00:00:00.000
00:05:05.889                : en:00:05:05.889
00:09:06.713                : en:00:09:06.713
00:12:14.108                : en:00:12:14.108
00:18:21.017                : en:00:18:21.017
00:25:04.503                : en:00:25:04.503
00:30:17.399                : en:00:30:17.399
00:34:13.093                : en:00:34:13.093
00:37:46.347                : en:00:37:46.347
00:42:54.447                : en:00:42:54.447
00:49:31.802                : en:00:49:31.802
00:54:14.626                : en:00:54:14.626
00:58:49.818                : en:00:58:49.818
01:05:24.129                : en:01:05:24.129
01:10:18.381                : en:01:10:18.381
01:14:53.823                : en:01:14:53.823
01:18:59.193                : en:01:18:59.193
01:25:35.672                : en:01:25:35.672
01:29:37.372                : en:01:29:37.372
01:34:22.824                : en:01:34:22.824
01:39:27.712                : en:01:39:27.712
01:43:48.222                : en:01:43:48.222
01:48:45.394                : en:01:48:45.394
01:55:20.580                : en:01:55:20.580
01:58:04.703                : en:01:58:04.703
02:02:33.930                : en:02:02:33.930
02:05:54.797                : en:02:05:54.797
02:12:51.213                : en:02:12:51.213



Скриншоты:
[+] Всего файлов в раздаче - 1:
War.for.the.Planet.of.the.Apes.2017.BDRip.720p.ExKinoRay.mkv6.76 GB

Текущая раздача:
ДатаКомментарии    РазмерПиры
2017-10-13 U Планета обезьян: Война / War for the Planet of the Apes (2017) BDRip 720p от ExKinoRay | D, L1 | iTunes 6.76 GB ↑ 780 ↓ 472

Показать ещё раздачи по запросу - планета:
Вчера U Планета обезьян: Война / War for the Planet of the Apes (2017) BDRip 720p от NNNB | 60 fps | Лицензия 4.95 GB ↑ 117 ↓ 89
2017-10-20 U Планета обезьян: Война / War for the Planet of the Apes (2017) BDRip-AVC от HELLYWOOD | Лицензия 3К1.46 GB ↑ 54 ↓ 26
2017-10-19 U Планета обезьян: Война / War for the Planet of the Apes (2017) BDRip-HEVC 1080p от HEVC CLUB | Лицензия 4.29 GB ↑ 87 ↓ 68
2017-10-19 U Планета обезьян: Война / War for the Planet of the Apes (2017) HDRip от Scarabey | Лицензия 1.45 GB ↑ 1053 ↓ 49
2017-10-19 U Планета обезьян: Война / War for the Planet of the Apes (2017) BDRip 1080p от ExKinoRay | 3D-Video | HSBS | Лицензия 16.21 GB ↑ 61 ↓ 54
2017-10-19 U Планета обезьян: Война / War for the Planet of the Apes (2017) BDRip 720p от Scarabey | Лицензия 5.07 GB ↑ 69 ↓ 32
2017-10-18 U Планета обезьян: Война / War for the Planet of the Apes (2017) HDRip-AVC от New-Team | Лицензия 1.54 GB ↑ 163 ↓ 81

Отзывы
Зарегистрируйтесь чтобы добавить комментарий.
Обратная связь
Copyleft ©