↑↓Torrent.by
Поиск
Логин: Регистрация
Пароль: Восстановить пароль
Загрузка...

Планета обезьян: Война / War for the Planet of the Apes (2017) HDRip-AVC от ExKinoRay | iTunes, L1

Скачать planeta-obezyan-voyna-war-for-the-planet-of-apes-2017-hdrip-avc-ot-exkinoray-itunes-l1.torrent
U Магнитная ссылка Размер: 2.82 GB Раздают: 290 Качают: 200 Добавлен: 2017-10-13 14:37:16
Планета обезьян: Война / War for the Planet of the Apes (2017) HDRip-AVC от ExKinoRay | iTunes, L1

Название: Планета обезьян: Война
Оригинальное название: War for the Planet of the Apes
Год выхода: 2017
Жанр: фантастика, боевик, триллер

Режиссер: Мэтт Ривз

В ролях: Энди Серкис, Вуди Харрельсон, Стив Зан, Карин Коновал, Амайя Миллер, Терри Нотари, Тай Олссон, Майкл Адамуэйт, Тоби Кеббелл, Гэбриел Чаварриа

О фильме:
Армию генетически модифицированных обезьян ожидает новый вызов: они вынуждены вступить в смертельную схватку с армией людей под руководством безжалостного полковника. После невообразимых потерь среди своих воинов вождь обезьян Цезарь начинает личную борьбу с темными инстинктами и собирается отомстить за весь свой вид. В конце концов он и полковник должны будут сойтись в эпической битве, которая решит, кто теперь будет править на Земле — люди или обезьяны.

Страна: США, Канада, Новая Зеландия
Продолжительность: 02:20:10
Перевод: Дублированный (iTunes), любительский одноголосый (BadBajo (полный перевод))
Субтитры: Русские (форсированные, полные), украинские (форсированные, полные), английские

Файл
Формат: MKV
Качество: HDRip-AVC
Видео: MPEG-4 AVC, 1024x426 (2.40:1), 1510 Kbit/s, 23.976 fps, 0,144 bpp
Звук:
Аудио 1: 48 kHz, AC3, 5.1 ch, 384 Kbps | RUS
Аудио 2: 48 kHz, AC3, 5.1 ch, 384 Kbps | RUS
Аудио 3: 48 kHz, AC3, 2.0 ch, 160 Kbps | UKR
Аудио 4: 48 kHz, AC3, 5.1 ch, 448 Kbps | ENG

Без какой-либо рекламы

Релиз:

Автор релиза:


[+] MI
General
Unique ID                                : 201449766063286935822870654254457321758 (0x978DD04D030DD06497F275768294791E)
Complete name                            : D:War.for.the.Planet.of.the.Apes.2017.2xRus.HDRip.AVC.ExKinoRay.mkv
Format                                   : Matroska
Format version                           : Version 2
File size                                : 2.82 GiB
Duration                                 : 2 h 20 min
Overall bit rate                         : 2 885 kb/s
Movie name                               : War for the Planet of the Apes 2017 from ExKinoRay
Encoded date                             : UTC 2017-10-13 02:59:30
Writing application                      : mkvmerge v5.6.0 ('Kenya Kane') built on May 27 2012 16:44:04
Writing library                          : libebml v1.2.3 + libmatroska v1.3.0

Video
ID                                       : 1
Format                                   : AVC
Format/Info                              : Advanced Video Codec
Format profile                           : High@L4.1
Format settings, CABAC                   : Yes
Format settings, ReFrames                : 14 frames
Codec ID                                 : V_MPEG4/ISO/AVC
Duration                                 : 2 h 20 min
Bit rate                                 : 1 510 kb/s
Width                                    : 1 024 pixels
Height                                   : 426 pixels
Display aspect ratio                     : 2.40:1
Frame rate mode                          : Constant
Frame rate                               : 23.976 (23976/1000) FPS
Color space                              : YUV
Chroma subsampling                       : 4:2:0
Bit depth                                : 8 bits
Scan type                                : Progressive
Bits/(Pixel*Frame)                       : 0.144
Stream size                              : 1.42 GiB (50%)
Title                                    : Enigma
Writing library                          : x264 core 152 r2851 ba24899
Encoding settings                        : cabac=1 / ref=14 / deblock=1:-2:-2 / analyse=0x3:0x113 / me=umh / subme=10 / psy=1 / psy_rd=1.00:0.05 / mixed_ref=1 / me_range=32 / chroma_me=1 / trellis=2 / 8x8dct=1 / cqm=0 / deadzone=21,11 / fast_pskip=1 / chroma_qp_offset=-3 / threads=12 / lookahead_threads=3 / sliced_threads=0 / nr=0 / decimate=0 / interlaced=0 / bluray_compat=0 / constrained_intra=0 / bframes=12 / b_pyramid=2 / b_adapt=2 / b_bias=0 / direct=3 / weightb=1 / open_gop=0 / weightp=2 / keyint=240 / keyint_min=23 / scenecut=40 / intra_refresh=0 / rc_lookahead=40 / rc=2pass / mbtree=0 / bitrate=1510 / ratetol=1.0 / qcomp=0.62 / qpmin=0 / qpmax=51 / qpstep=4 / cplxblur=20.0 / qblur=0.5 / vbv_maxrate=50000 / vbv_bufsize=62500 / nal_hrd=none / filler=0 / ip_ratio=1.40 / pb_ratio=1.30 / aq=1:1.00
Language                                 : English
Default                                  : Yes
Forced                                   : No
Color range                              : Limited
Color primaries                          : BT.709
Transfer characteristics                 : BT.709
Matrix coefficients                      : BT.709

Audio #1
ID                                       : 2
Format                                   : AC-3
Format/Info                              : Audio Coding 3
Mode extension                           : CM (complete main)
Format settings, Endianness              : Big
Codec ID                                 : A_AC3
Duration                                 : 2 h 20 min
Bit rate mode                            : Constant
Bit rate                                 : 384 kb/s
Channel(s)                               : 6 channels
Channel positions                        : Front: L C R, Side: L R, LFE
Sampling rate                            : 48.0 kHz
Frame rate                               : 31.250 FPS (1536 spf)
Compression mode                         : Lossy
Stream size                              : 385 MiB (13%)
Title                                    : iTunes
Language                                 : Russian
Default                                  : Yes
Forced                                   : No

Audio #2
ID                                       : 3
Format                                   : AC-3
Format/Info                              : Audio Coding 3
Mode extension                           : CM (complete main)
Format settings, Endianness              : Big
Codec ID                                 : A_AC3
Duration                                 : 2 h 20 min
Bit rate mode                            : Constant
Bit rate                                 : 384 kb/s
Channel(s)                               : 6 channels
Channel positions                        : Front: L C R, Side: L R, LFE
Sampling rate                            : 48.0 kHz
Frame rate                               : 31.250 FPS (1536 spf)
Compression mode                         : Lossy
Stream size                              : 385 MiB (13%)
Title                                    : AVO (BadBajo)
Language                                 : Russian
Default                                  : No
Forced                                   : No

Audio #3
ID                                       : 4
Format                                   : AC-3
Format/Info                              : Audio Coding 3
Mode extension                           : CM (complete main)
Format settings, Endianness              : Big
Codec ID                                 : A_AC3
Duration                                 : 2 h 20 min
Bit rate mode                            : Constant
Bit rate                                 : 160 kb/s
Channel(s)                               : 2 channels
Channel positions                        : Front: L R
Sampling rate                            : 48.0 kHz
Frame rate                               : 31.250 FPS (1536 spf)
Compression mode                         : Lossy
Stream size                              : 160 MiB (6%)
Title                                    : iTunes
Language                                 : Ukrainian
Default                                  : No
Forced                                   : No

Audio #4
ID                                       : 5
Format                                   : AC-3
Format/Info                              : Audio Coding 3
Mode extension                           : CM (complete main)
Format settings, Endianness              : Big
Codec ID                                 : A_AC3
Duration                                 : 2 h 20 min
Bit rate mode                            : Constant
Bit rate                                 : 448 kb/s
Channel(s)                               : 6 channels
Channel positions                        : Front: L C R, Side: L R, LFE
Sampling rate                            : 48.0 kHz
Frame rate                               : 31.250 FPS (1536 spf)
Compression mode                         : Lossy
Stream size                              : 449 MiB (16%)
Language                                 : English
Default                                  : No
Forced                                   : No

Text #1
ID                                       : 6
Format                                   : UTF-8
Codec ID                                 : S_TEXT/UTF8
Codec ID/Info                            : UTF-8 Plain Text
Title                                    : Forced
Language                                 : Russian
Default                                  : Yes
Forced                                   : No

Text #2
ID                                       : 7
Format                                   : UTF-8
Codec ID                                 : S_TEXT/UTF8
Codec ID/Info                            : UTF-8 Plain Text
Title                                    : Full
Language                                 : Russian
Default                                  : No
Forced                                   : No

Text #3
ID                                       : 8
Format                                   : UTF-8
Codec ID                                 : S_TEXT/UTF8
Codec ID/Info                            : UTF-8 Plain Text
Title                                    : Forced
Language                                 : Ukrainian
Default                                  : No
Forced                                   : No

Text #4
ID                                       : 9
Format                                   : UTF-8
Codec ID                                 : S_TEXT/UTF8
Codec ID/Info                            : UTF-8 Plain Text
Title                                    : Full
Language                                 : Ukrainian
Default                                  : No
Forced                                   : No

Text #5
ID                                       : 10
Format                                   : UTF-8
Codec ID                                 : S_TEXT/UTF8
Codec ID/Info                            : UTF-8 Plain Text
Title                                    : Full
Language                                 : English
Default                                  : No
Forced                                   : No

Text #6
ID                                       : 11
Format                                   : UTF-8
Codec ID                                 : S_TEXT/UTF8
Codec ID/Info                            : UTF-8 Plain Text
Language                                 : English
Default                                  : No
Forced                                   : No

Menu
00:00:00.000                             : en:00:00:00.000
00:05:05.889                             : en:00:05:05.889
00:09:06.713                             : en:00:09:06.713
00:12:14.108                             : en:00:12:14.108
00:18:21.017                             : en:00:18:21.017
00:25:04.503                             : en:00:25:04.503
00:30:17.399                             : en:00:30:17.399
00:34:13.093                             : en:00:34:13.093
00:37:46.347                             : en:00:37:46.347
00:42:54.447                             : en:00:42:54.447
00:49:31.802                             : en:00:49:31.802
00:54:14.626                             : en:00:54:14.626
00:58:49.818                             : en:00:58:49.818
01:05:24.129                             : en:01:05:24.129
01:10:18.381                             : en:01:10:18.381
01:14:53.823                             : en:01:14:53.823
01:18:59.193                             : en:01:18:59.193
01:25:35.672                             : en:01:25:35.672
01:29:37.372                             : en:01:29:37.372
01:34:22.824                             : en:01:34:22.824
01:39:27.712                             : en:01:39:27.712
01:43:48.222                             : en:01:43:48.222
01:48:45.394                             : en:01:48:45.394
01:55:20.580                             : en:01:55:20.580
01:58:04.703                             : en:01:58:04.703
02:02:33.930                             : en:02:02:33.930
02:05:54.797                             : en:02:05:54.797
02:12:51.213                             : en:02:12:51.213




Скриншоты:
[+] Всего файлов в раздаче - 1:
War.for.the.Planet.of.the.Apes.2017.2xRus.HDRip.AVC.ExKinoRay.mkv2.82 GB

Текущая раздача:
ДатаКомментарии    РазмерПиры
2017-10-13 U Планета обезьян: Война / War for the Planet of the Apes (2017) HDRip-AVC от ExKinoRay | iTunes, L1 2.82 GB ↑ 290 ↓ 200

Показать ещё раздачи по запросу - планета:
Сегодня U Планета обезьян: Война / War for the Planet of the Apes (2017) HDRip-AVC от ExKinoRay | Лицензия 746.30 MB ↑ 46 ↓ 7
Сегодня U Планета обезьян: Война / War for the Planet of the Apes (2017) BDRip-AVC от HELLYWOOD | Лицензия 2.91 GB ↑ 84 ↓ 23
Вчера U Планета обезьян: Война / War for the Planet of the Apes (2017) BDRemux 1080p от ExKinoRay | Лицензия 28.30 GB ↑ 95 ↓ 126
Вчера U Планета обезьян: Война / War for the Planet of the Apes (2017) BDRip 720p от HELLYWOOD | Лицензия 5.76 GB ↑ 129 ↓ 160
Вчера U Планета обезьян: Война / War for the Planet of the Apes (2017) HDRip-AVC от ExKinoRay | Лицензия, L1 2.89 GB ↑ 98 ↓ 42
Вчера U Планета обезьян: Война / War for the Planet of the Apes (2017) BDRip от MegaPeer | Лицензия 2.18 GB ↑ 62 ↓ 52
Вчера U Планета обезьян: Война / War for the Planet of the Apes (2017) BDRip 720p от ExKinoRay | Лицензия 6.22 GB ↑ 158 ↓ 186

Отзывы
Зарегистрируйтесь чтобы добавить комментарий.
Обратная связь
Copyleft ©