↑↓Torrent.by
Поиск
Логин: Регистрация
Пароль: Восстановить пароль
Загрузка...

Хроники Шаннары / The Shannara Chronicles [02х01 из 10] (2017) HDTVRip 720p | SunshineStudio

Скачать hroniki-shannary-the-shannara-chronicles-02h01-iz-10-2017-hdtvrip-720p-sunshinestudio.torrent
U Магнитная ссылка Размер: 1.00 GB Раздают: 197 Качают: 27 Добавлен: 2017-10-13 15:14:52
Хроники Шаннары / The Shannara Chronicles [02х01 из 10] (2017) HDTVRip 720p | SunshineStudio

Информация о сериале
Название: Фантастика, фэнтези, приключения
Оригинальное название: The Shannara Chronicles
Год выпуска: 2017
Жанр:  Драма, криминал
Режиссер: Брэд Тёрнер, Джонатан Либесман, Джеймс Маршалл
В ролях: Остин Роберт Батлер, Поппи Дрейтон, Ивана Бакеро, Ману Беннетт, Аарон Якубенко, Эмилия Бёрнс, Джон Рис-Дэвис, Маркус Ванко, Брук Уильямс, Дэниэл МакФерсон

Описание сериала:
События сериала происходят в далёком будущем. Войны разделили Северную Америку на 4 части. На какой-то из них обитают эльфы, на иной — люди, на третьей — тролли и на четвёртой — дворфы. Основными персонажами сериала окажутся отпрыски древнего рода эльфов — Шаннара. Именно от них будет зависеть будущая судьба планеты…

Выпущено: США, Farah Films, Music Television (MTV), Sonar Entertainment
Продолжительность: 1 x ~ 00:43:00
Перевод: Любительский (двухголосый) Sunshine Studio

Файл
Качество: HDTVRip (720p)
Видео: MPEG-4 AVC, ~ 3000 Кбит/с, 1280х720
Аудио: Русский (AC3, 2 ch, 192 Кбит/с)
Субтитры: Отсутствуют
Присутствует реклама!

Релиз:


[+] MI
General
Unique ID                                : 188000011996832854428677567883019540140 (0x8D6F7C3A537CC08985BE54E97787D6AC)
Complete name                            : The.Blacklist.S04E01.720p.SunshineStudio.mkv
Format                                   : Matroska
Format version                           : Version 4 / Version 2
File size                                : 1.10 GiB
Duration                                 : 43mn 33s
Overall bit rate                         : 3 622 Kbps
Encoded date                             : UTC 2016-10-30 08:00:30
Writing application                      : mkvmerge v8.3.0 ('Over the Horizon') 64bit
Writing library                          : libebml v1.3.1 + libmatroska v1.4.2

Video
ID                                       : 1
Format                                   : AVC
Format/Info                              : Advanced Video Codec
Format profile                           : High@L3.1
Format settings, CABAC                   : Yes
Format settings, ReFrames                : 4 frames
Codec ID                                 : V_MPEG4/ISO/AVC
Duration                                 : 43mn 33s
Bit rate                                 : 3 358 Kbps
Width                                    : 1 280 pixels
Height                                   : 720 pixels
Display aspect ratio                     : 16:9
Frame rate mode                          : Constant
Frame rate                               : 23.976 fps
Color space                              : YUV
Chroma subsampling                       : 4:2:0
Bit depth                                : 8 bits
Scan type                                : Progressive
Bits/(Pixel*Frame)                       : 0.152
Stream size                              : 1.02 GiB (93%)
Writing library                          : x264 core 146 r2538 121396c
Encoding settings                        : cabac=1 / ref=1 / deblock=1:0:0 / analyse=0x3:0x113 / me=hex / subme=2 / psy=1 / psy_rd=1.00:0.00 / mixed_ref=0 / me_range=16 / chroma_me=1 / trellis=0 / 8x8dct=1 / cqm=0 / deadzone=21,11 / fast_pskip=1 / chroma_qp_offset=0 / threads=9 / lookahead_threads=3 / sliced_threads=0 / nr=0 / decimate=1 / interlaced=0 / bluray_compat=0 / constrained_intra=0 / bframes=3 / b_pyramid=2 / b_adapt=1 / b_bias=0 / direct=1 / weightb=1 / open_gop=0 / weightp=1 / keyint=250 / keyint_min=23 / scenecut=40 / intra_refresh=0 / rc_lookahead=10 / rc=crf / mbtree=1 / crf=18.0 / qcomp=0.60 / qpmin=0 / qpmax=69 / qpstep=4 / ip_ratio=1.40 / aq=1:1.00
Default                                  : Yes
Forced                                   : No

Audio
ID                                       : 2
Format                                   : AC-3
Format/Info                              : Audio Coding 3
Mode extension                           : CM (complete main)
Format settings, Endianness              : Big
Codec ID                                 : A_AC3
Duration                                 : 43mn 33s
Bit rate mode                            : Constant
Bit rate                                 : 192 Kbps
Channel(s)                               : 2 channels
Channel positions                        : Front: L R
Sampling rate                            : 48.0 KHz
Bit depth                                : 16 bits
Compression mode                         : Lossy
Stream size                              : 59.8 MiB (5%)
Default                                  : Yes
Forced                                   : No




Скриншоты:
[+] Всего файлов в раздаче - 1:
The.Shannara.Chronicles.S02E01.720p.SunshineStudio.mkv1.00 GB

Текущая раздача:
ДатаКомментарии    РазмерПиры
2017-10-13 U Хроники Шаннары / The Shannara Chronicles [02х01 из 10] (2017) HDTVRip 720p | SunshineStudio 1.00 GB ↑ 197 ↓ 27

Показать ещё раздачи по запросу - хроники:
2017-10-15 U Хроники Шаннары / The Shannara Chronicles [02х01 из 10] (2017) WEB-DLRip | NewStudio 1К549.94 MB ↑ 106 ↓ 11
2017-10-14 U Хроники Шаннары / The Shannara Chronicles [01-02х01-11 из 20] (2016-2017) WEB-DLRip от qqss44 | LostFilm 5.40 GB ↑ 61 ↓ 83
2017-10-13 U Хроники Шаннары / The Shannara Chronicles [02x01 из 10] (2017) WEBRip | IdeaFilm 624.93 MB ↑ 179 ↓ 45
2017-10-08 U Прюллер Вильгельм - Солдат на войне. Фронтовые хроники обер-лейтенанта Вермахта. 1939–1945 (2016) FB2 942.36 kB ↑ 70 ↓ 25
2017-08-29 U Житорчук Юрий - Мир на краю пропасти. Предвоенные хроники (2013) FB2 1.99 MB ↑ 37 ↓ 4
2017-08-23 U Хроники мутантов / Mutant Chronicles (2008) BDRip-AVC от MegaPeer | D 1К742.70 MB ↑ 101 ↓ 31
2017-08-23 U Район тьмы. Хроники повседневного зла [00-12 из 12] (2016) WEB-DLRip от OlLanDGroup 1.91 GB ↑ 76 ↓ 40

Отзывы
Зарегистрируйтесь чтобы добавить комментарий.
Обратная связь
Copyleft ©