↑↓Torrent.by
Поиск
Логин: Регистрация
Пароль: Восстановить пароль
Загрузка...

История призрака / A Ghost Story (2017) BDRip 720p | L

Скачать istoriya-prizraka-a-ghost-story-2017-bdrip-720p-l.torrent
U Магнитная ссылка Размер: 2.73 GB Раздают: 155 Качают: 51 Добавлен: 2017-10-13 15:16:01
История призрака / A Ghost Story (2017) BDRip 720p | L

Наименование: История призрака
Оригинальное наименование: A Ghost Story
Произведено: США
Категория: фэнтези, драма, мелодрама
Режиссер постановщик: Дэвид Лоури
В главных ролях: Кейси Аффлек, Руни Мара, МакКольм Сепас мл., Кеннейша Томпсон, Гроувер Колсон, Лизбет Карденас, Барлоу Джейкобс, Дэггер Салазар, Соня Асеведо

О фильме:
История о безвременно умершем мужчине, который не ушел в мир иной, а остался привязан к своему бывшему дому до скончания веков.

Файл
Качество: BDRip 720p
Видео данные: MKV, 960x720 (4:3), 23.976  fps,  4000 Кбит/с
Аудио данные: Русский (AC3, 2 ch, 384 Кбит/с)
Перевод: Любительский многоголосый (GreenРай Studio)
Продолжительность: 01:32:37

ВНИМАНИЕ! Присутствует реклама!

Релиз:


[+] Mediainfo
General
Unique ID                   : 214916828520198767396464499567247749531 (0xA1AF79BE4C7C06559E05B1F2EE2FF19B)
Complete name               : D:Рабочий столA.Ghost.Story.2017.P.BDRip.720p.mkv
Format                      : Matroska
Format version              : Version 4 / Version 2
File size                   : 2.73 GiB
Duration                    : 1 h 32 min
Overall bit rate mode       : Constant
Overall bit rate            : 4 219 kb/s
Encoded date                : UTC 2017-10-11 20:40:34
Writing application         : mkvmerge v8.3.0 ('Over the Horizon') 64bit
Writing library             : libebml v1.3.1 + libmatroska v1.4.2

Video
ID                          : 1
Format                      : AVC
Format/Info                 : Advanced Video Codec
Format profile              : Main@L3.1
Format settings, CABAC      : Yes
Format settings, ReFrames   : 3 frames
Codec ID                    : V_MPEG4/ISO/AVC
Duration                    : 1 h 32 min
Bit rate mode               : Constant
Bit rate                    : 4 000 kb/s
Width                       : 960 pixels
Height                      : 720 pixels
Display aspect ratio        : 4:3
Frame rate mode             : Constant
Frame rate                  : 23.976 (24000/1001) FPS
Standard                    : NTSC
Color space                 : YUV
Chroma subsampling          : 4:2:0
Bit depth                   : 8 bits
Scan type                   : Progressive
Bits/(Pixel*Frame)          : 0.241
Stream size                 : 2.48 GiB (91%)
Language                    : English
Default                     : Yes
Forced                      : No
Color range                 : Limited

Audio
ID                          : 2
Format                      : AC-3
Format/Info                 : Audio Coding 3
Mode extension              : CM (complete main)
Format settings, Endianness : Big
Codec ID                    : A_AC3
Duration                    : 1 h 32 min
Bit rate mode               : Constant
Bit rate                    : 384 kb/s
Channel(s)                  : 2 channels
Channel positions           : Front: L R
Sampling rate               : 48.0 kHz
Frame rate                  : 31.250 FPS (1536 spf)
Compression mode            : Lossy
Stream size                 : 255 MiB (9%)
Default                     : Yes
Forced                      : No



Скриншоты:
[+] Всего файлов в раздаче - 1:
A.Ghost.Story.2017.P.BDRip.720p.mkv2.73 GB

Текущая раздача:
ДатаКомментарии    РазмерПиры
2017-10-13 U История призрака / A Ghost Story (2017) BDRip 720p | L 2.73 GB ↑ 155 ↓ 51

Показать ещё раздачи по запросу - история:
Вчера U Дикая история / El bar (2017) BDRip 720p | Line 4.64 GB ↑ 122 ↓ 83
Вчера U Дикая история / El bar (2017) HDRip-AVC от ExKinoRay | Line 3К745.65 MB ↑ 94 ↓ 34
2017-10-13 U История призрака / A Ghost Story (2017) HDRip | L 1К1.37 GB ↑ 167 ↓ 44
2017-10-05 U Американская история ужасов / American Horror Story [07х01-05 из 11] (2017) HDTVRip 720p | SunshineStudio 4.68 GB ↑ 41 ↓ 134
2017-09-26 U Порнография: Тайная история цивилизации / Pornography: A Secret History of Civilisation [01-06 из 06] (1999 ) DVD9 | P2 12.51 GB ↑ 207 ↓ 158
2017-09-20 U История призрака / A Ghost Story (2017) HDRip от ExKinoRay | L1 1.51 GB ↑ 173 ↓ 87
2017-09-18 U Ник Билтон - Киберпреступник № 1. История создателя подпольной сетевой империи (2017) FB2 1.40 MB ↑ 141 ↓ 8

Отзывы
Зарегистрируйтесь чтобы добавить комментарий.
Обратная связь
Copyleft ©