↑↓Torrent.by
Поиск
Логин: Регистрация
Пароль: Восстановить пароль
Загрузка...

Собор Святого Петра и Великая базилика / St. Peter's and the Papal Basilicas of Rome 3D (2016) BDRip 1080p от Ash61 | 3D-Video | HOU | P

Скачать sobor-svyatogo-petra-i-velikaya-bazilika-st-peter-s-and-the-papal-basilicas-of-rome-3d-2016-bdrip-1080p-ot-ash61-video-hou-p.torrent
U Магнитная ссылка Размер: 7.46 GB Раздают: 65 Качают: 17 Добавлен: 2017-10-14 23:52:14
Собор Святого Петра и Великая базилика / St. Peter's and the Papal Basilicas of Rome 3D (2016) BDRip 1080p от Ash61 | 3D-Video | HOU | P

Собор Святого Петра и Великая базилика в 3D
San Pietro e le Basiliche Papali di Roma 3D
St. Peter's and the Papal Basilicas of Rome 3D

Год выпуска: 2016
Страна: Италия (Sky 3D, Centro Televisivo Vaticano, Magnitudo, Nexo Digital)
Жанр:  Документальный, История, Скульптура, Архитектура
Продолжительность: 01:34:42

Перевод: Профессиональный многоголосый закадровый - ТВ (Нева-фильм)

Режиссер: Лука Виотто / Luca Viotto

В фильме снимались: Antonio Paolucci (директор музеев Ватикана), Paolo Portoghesi (архитектор), Claudio Strinati (историк искусства), Миколь Форти (директор коллекции современного искусства музеев Ватикана)
На русском озвучивали: Леонид Парфёнов и другие.

Описание: Зрителю предоставляется эксклюзивная возможность посетить четыре главные базилики Рима и прикоснуться к скрытым сокровищам Вечного города. А развернутые комментарии ведущих экспертов архитектуры и скульптуры позволят глубоко погрузиться в историю и современность этих легендарных сооружений.
«Собор Святого Петра и Патриаршие Базилики Рима 3D» — это уникальный фильм, созданный по случаю провозглашения Папой Римским Франциском внеочередного Юбилейного года Милосердия (2015-2016).
Фильм познакомит нас с тем, что происходило с этими удивительными сооружениями на протяжении столетий, расскажет историю наиболее известных произведений искусства, хранящихся в них, поможет постичь те глубочайшие смыслы, что скрыты в стенах этих великих базилик.
Зрителю будут рассказаны истории из жизни самих пап и великих художников, которых они привлекали к работе; зрители станут свидетелями событий, благодаря которым эти сооружения стали бессмертными.
Кроме того, зрителю откроются тайны и легенды, связанные с удивительными произведениями монументального искусства. Архитектура, живопись, история и духовность – обо всем об этом будет рассказано устами тех, кто хорошо знаком с самыми сокровенными местами этих зданий.
Благодаря передовым технологиям, использованным во время съемок фильма, зрители смогут по-настоящему прочувствовать атмосферу этих священных мест. Съемки с вертолета, использование беспилотных дронов и «механических рук», способных достигать 50-тиметровой высоты, а также съемки в формате 3D и 3D-реконструкции старинных карт и чертежей.
Никого не оставят равнодушными уникальные художественные коллекции, находящиеся в Патриарших Базиликах Рима, которые включают художественные и архитектурные произведения искусства таких прославленных художников и архитекторов, как Бернини, Борромини, Браманте, Микеланджело, Рафаэля, Арнольфоди Камбио и Доменико Фонтана.
Фильм “Собор Святого Петра и Патриаршие Базилики Рима 3D” предоставит зрителям эксклюзивный доступ к местам, которые обычно закрыты для публики (к примеру, редчайшие кадры открытия царских врат папой Франциском).

Доп. инфо: Русская дорога получена вставкой блоков фраз русской дороги в центральный канал английской дороги.
За исходник русской дороги спасибо Голдфишка!

Премьера (мир): 11 апреля 2016

Качество: BDRip (by Ash61) [с BD 2D/3D Ita]
Контейнер: MKV
Формат 3D: Half OverUnder / Вертикальная анаморфная стереопара
Порядок ракурсов: левый ракурс первый

Видео: AVC / 1920х1080p / 23,976 fps / 10.0 Mbps

Аудио:
#1 - Русский / AC3 / 48 KHz / 5.1 ch / 640 Kbps (MVO - TV) (Нева-фильм) (монтаж в 5.1 - Ash61)
#2 - Английский / AC3 / 48 KHz / 5.1 ch / 640 Kbps (BD 2D/3D Ita)

Субтитры: Отсутствуют

Каталог фильмов, выходивших в 3Д, со ссылками (вер. 27.09.2017)

О форматах и методах просмотра 3D


[+] MediaInfo
General
Unique ID                   : 235266161871553664212233150105377106983 (0xB0FE9D56BFF78619B3688FB98928EC27)
Complete name               : D:St.Peter'sAndThePapalBasilicasOfRome(2016)3D-halfOU(Ash61).mkv
Format                      : Matroska
Format version              : Version 2
File size                   : 7.46 GiB
Duration                    : 1 h 34 min
Overall bit rate            : 11.3 Mb/s
Movie name                  : Собор Святого Петра и Великая базилика в 3D / San Pietro e le Basiliche Papali di Roma 3D / St. Peter's and the Papal Basilicas of Rome 3D (2016) 3D
Encoded date                : UTC 2017-10-11 16:31:15
Writing application         : mkvmerge v5.8.0 ('No Sleep / Pillow') built on Sep  2 2012 15:37:04
Writing library             : libebml v1.2.3 + libmatroska v1.3.0

Video
ID                          : 1
Format                      : AVC
Format/Info                 : Advanced Video Codec
Format profile              : High@L4.1
Format settings, CABAC      : Yes
Format settings, RefFrames  : 4 frames
Codec ID                    : V_MPEG4/ISO/AVC
Duration                    : 1 h 34 min
Bit rate                    : 10 000 kb/s
Width                       : 1 920 pixels
Height                      : 1 080 pixels
Display aspect ratio        : 16:9
Frame rate mode             : Constant
Frame rate                  : 23.976 (24000/1001) FPS
Color space                 : YUV
Chroma subsampling          : 4:2:0
Bit depth                   : 8 bits
Scan type                   : Progressive
Bits/(Pixel*Frame)          : 0.201
Stream size                 : 6.47 GiB (87%)
Title                       : BDRip by Ash61
Writing library             : x264 core 146 r2538 121396c
Encoding settings           : cabac=1 / ref=4 / deblock=1:-3:-3 / analyse=0x3:0x113 / me=umh / subme=10 / psy=1 / psy_rd=1.00:0.00 / mixed_ref=1 / me_range=32 / chroma_me=1 / trellis=2 / 8x8dct=1 / cqm=0 / deadzone=21,11 / fast_pskip=0 / chroma_qp_offset=-2 / threads=12 / lookahead_threads=3 / sliced_threads=0 / nr=0 / decimate=0 / interlaced=0 / bluray_compat=0 / constrained_intra=0 / bframes=10 / b_pyramid=2 / b_adapt=2 / b_bias=0 / direct=3 / weightb=1 / open_gop=0 / weightp=2 / keyint=250 / keyint_min=23 / scenecut=40 / intra_refresh=0 / rc=2pass / mbtree=0 / bitrate=10000 / ratetol=1.0 / qcomp=0.70 / qpmin=0 / qpmax=69 / qpstep=4 / cplxblur=20.0 / qblur=0.5 / frame-packing=4 / ip_ratio=1.40 / pb_ratio=1.30 / aq=1:0.70
Language                    : Italian
Default                     : Yes
Forced                      : No

Audio #1
ID                          : 2
Format                      : AC-3
Format/Info                 : Audio Coding 3
Format settings, Endianness : Big
Codec ID                    : A_AC3
Duration                    : 1 h 34 min
Bit rate mode               : Constant
Bit rate                    : 640 kb/s
Channel(s)                  : 6 channels
Channel positions           : Front: L C R, Side: L R, LFE
Sampling rate               : 48.0 kHz
Frame rate                  : 31.250 FPS (1536 SPF)
Bit depth                   : 16 bits
Compression mode            : Lossy
Stream size                 : 434 MiB (6%)
Title                       : Многоголосый закадровый - Нева-фильм (Леонид Парфёнов и др.)
Language                    : Russian
Service kind                : Complete Main
Default                     : Yes
Forced                      : No

Audio #2
ID                          : 3
Format                      : AC-3
Format/Info                 : Audio Coding 3
Format settings, Endianness : Big
Codec ID                    : A_AC3
Duration                    : 1 h 34 min
Bit rate mode               : Constant
Bit rate                    : 640 kb/s
Channel(s)                  : 6 channels
Channel positions           : Front: L C R, Side: L R, LFE
Sampling rate               : 48.0 kHz
Frame rate                  : 31.250 FPS (1536 SPF)
Bit depth                   : 16 bits
Compression mode            : Lossy
Stream size                 : 434 MiB (6%)
Language                    : English
Service kind                : Complete Main
Default                     : No
Forced                      : No

Menu
00:00:00.000                : :1
00:00:14.473                : :2
00:07:38.124                : :3
00:15:45.695                : :4
00:20:37.153                : :5
00:26:21.371                : :6
00:30:58.106                : :7
00:37:06.558                : :8
00:41:29.946                : :9
00:49:12.533                : :10
00:54:23.844                : :11
01:02:01.217                : :12
01:08:09.794                : :13
01:15:40.703                : :14
01:20:21.650                : :15
01:26:14.419                : :16
01:30:50.320                : :17



[+] Для оценки 3Д - Анимированные скрины






















Скриншоты:
[+] Всего файлов в раздаче - 1:

Отзывы
Зарегистрируйтесь чтобы добавить комментарий.
Обратная связь
Copyleft ©