↑↓Torrent.by
Поиск
Логин: Регистрация
Пароль: Восстановить пароль
Загрузка...

Копейка (2002) DVDRip-AVC

Скачать kopeyka-2002-dvdrip-avc.torrent
U Магнитная ссылка Размер: 1.60 GB Раздают: 135 Качают: 62 Добавлен: 2017-10-15 12:44:17
Копейка (2002) DVDRip-AVC

Название: Копейка
Год выхода: 2002
Жанр:  комедия
Режиссер: Иван Дыховичный
В ролях: Андрей Краско, Роман Мадянов, Сергей Мазаев, Сергей Шнуров, Владимир Сорокин, Юрий Цурило, Алена Бабенко, Ольга Дыховичная, Олег Ковалов,…

О фильме:
Лихие приключения ВАЗ-2101, «Жигули» первой модели, легендарной «копейки», которая тридцать лет назад была настоящей «богиней» для миллионов советских людей. «Вечная и неразменная», покалеченная, измордованная и реанимированная «золотыми руками» мастера Бубуки, она путешествует от члена политбюро к проститутке, от черноморского каталы к простому гэбэшнику, от предприимчивого пенсионера к физику-диссиденту-лауреату Госпремии из новосибирского Академгородка.

Непотопляемый и несгораемый народный автомобиль с ветерком и лязгом катится по дорогам, временам и судьбам, превращается в дом и корабль, в кровать и гроб, очаровывает и вызывает ужас, приносит счастье и губит…

Страна: Россия / Эталон-фильм, Скарабей Фильмс, Кинокомпания Воля
Продолжительность: 01:57:35
Перевод: Не требуется [Лицензия]

Файл
Качество: DVDRip-AVC
Формат: MKV
Видео: High@L4.1, ~1527 Кбит/сек, 728x434
Звук: AC3, 6 ch, 384 Кбит/сек
Субтитры: нет


[+] M/I
General
Unique ID                   : 12219005310583010965935038242355954203 (0x9314B79717CC0D0A6986010543C421B)
Complete name               : F:Копейка.2002.DVDRIP-AVC.[-=DoMiNo=-].mkv
Format                      : Matroska
Format version              : Version 4 / Version 2
File size                   : 1.60 GiB
Duration                    : 1 h 57 min
Overall bit rate            : 1 950 kb/s
Movie name                  : Копейка
Deion                 : Лихие приключения ВАЗ-2101, «Жигули» первой модели, легендарной «копейки», которая тридцать лет назад была настоящей «богиней» для миллионов советских людей. «Вечная и неразменная», покалеченная, измордованная и реанимированная «золотыми руками» мастера Бубуки, она путешествует от члена политбюро к проститутке, от черноморского каталы к простому гэбэшнику, от предприимчивого пенсионера к физику-диссиденту-лауреату Госпремии из новосибирского Академгородка. / Непотопляемый и несгораемый народный автомобиль с ветерком и лязгом катится по дорогам, временам и судьбам, превращается в дом и корабль, в кровать и гроб, очаровывает и вызывает ужас, приносит счастье и губит…
Writing application         : XviD4PSP 7.0.410 DAILY
Writing library             : Lavf57.71.100
ErrorDetectionType          : Per level 1
Attachments                 : poster.jpg
ACTORS                      : Сергей Мазаев, Андрей Краско, Ируте Венгалите, Юрий Цурило, Александра Куликова, Олег Ковалов, Сергей Шнуров, Ольга Дыховичная, Алёна Бабенко, Валерий Кудряшов, Роман Мадянов, Владимир Сорокин, Игорь Арташонов, Наталья Позднякова, Владимир Болотнов, Иван Ролдугин, Константин Спасский, Максим Литовченко, Сергей Фролов, Юрий Крючков, Петр Кожевников, Саид Багов, Алексей Агранович, Федор Добронравов, Ирина Кравкина, Сергей Фетисов, Пётр Лимин, Сергей Солоницын, Евгений Дятлов, Елена Маркина, Игорь Малахов, Иван Дыховичный, Алина Ван Ортон, Александр Тютрюмов, Наталия Кудрявцева, Вячеслав Зайцев, Борис Каморзин, Валентина Березуцкая, Игорь Черневич, Мария Чернова
COMPOSER                    : Антон Батагов
DATE                        : 2002
DIRECTOR                    : Иван Дыховичный
ENCODING_INFO               : DVD > MKV Произвольный / MPEG2 > X264 CRF 18.0 Произвольный / AC3 > COPY Безопасное
GENRE                       :  [url=/tag/5/комедия]комедия[/url]
HD_VIDEO                    : 1
Language                    : und
MEDIA_TYPE                  : 9
PRODUCER                    : Иван Дыховичный, Эрик Вайсберг, Виталий Южилин
WRITER                      : Иван Дыховичный, Владимир Сорокин

Video
ID                          : 1
Format                      : AVC
Format/Info                 : Advanced Video Codec
Format profile              : High@L4.1
Format settings, CABAC      : Yes
Format settings, RefFrames  : 12 frames
Codec ID                    : V_MPEG4/ISO/AVC
Duration                    : 1 h 57 min
Bit rate                    : 1 527 kb/s
Width                       : 728 pixels
Height                      : 434 pixels
Display aspect ratio        : 5:3
Frame rate mode             : Constant
Frame rate                  : 25.000 FPS
Color space                 : YUV
Chroma subsampling          : 4:2:0
Bit depth                   : 8 bits
Scan type                   : Progressive
Bits/(Pixel*Frame)          : 0.193
Stream size                 : 1.25 GiB (78%)
Title                       : RIP_BY_-=DoMiNo=-
Writing library             : x264 core 152 r2851M ba24899
Encoding settings           : cabac=1 / ref=12 / deblock=1:-3:-3 / analyse=0x3:0x133 / me=umh / subme=11 / psy=1 / psy_rd=1.00:0.05 / mixed_ref=1 / me_range=32 / chroma_me=1 / trellis=2 / 8x8dct=1 / cqm=0 / deadzone=21,11 / fast_pskip=1 / chroma_qp_offset=-3 / threads=6 / lookahead_threads=1 / sliced_threads=0 / nr=0 / decimate=1 / interlaced=0 / bluray_compat=0 / constrained_intra=0 / bframes=12 / b_pyramid=2 / b_adapt=2 / b_bias=0 / direct=3 / weightb=1 / open_gop=0 / weightp=2 / keyint=250 / keyint_min=25 / scenecut=40 / intra_refresh=0 / rc_lookahead=60 / rc=crf / mbtree=1 / crf=18.0 / qcomp=0.60 / qpmin=0 / qpmax=69 / qpstep=4 / ip_ratio=1.40 / aq=1:1.00
Default                     : Yes
Forced                      : No
Color range                 : Full

Audio
ID                          : 2
Format                      : AC-3
Format/Info                 : Audio Coding 3
Format settings, Endianness : Big
Codec ID                    : A_AC3
Duration                    : 1 h 57 min
Bit rate mode               : Constant
Bit rate                    : 384 kb/s
Channel(s)                  : 6 channels
Channel positions           : Front: L C R, Side: L R, LFE
Sampling rate               : 48.0 kHz
Frame rate                  : 31.250 FPS (1536 SPF)
Bit depth                   : 16 bits
Compression mode            : Lossy
Stream size                 : 323 MiB (20%)
Language                    : Russian
Service kind                : Complete Main
Default                     : Yes
Forced                      : No

Menu
00:00:00.000                : :Глава 1
00:03:24.000                : :Глава 2
00:06:34.560                : :Глава 3
00:12:49.920                : :Глава 4
00:17:37.920                : :Глава 5
00:25:32.640                : :Глава 6
00:31:00.000                : :Глава 7
00:42:32.416                : :Глава 8
00:45:56.416                : :Глава 9
00:49:06.976                : :Глава 10
00:55:22.336                : :Глава 11
01:00:10.336                : :Глава 12
01:08:05.056                : :Глава 13
01:13:32.416                : :Глава 14
01:25:05.056                : :Глава 15
13:57:53.975                : :Глава 16
13:59:01.175                : :Глава 17



Скриншоты:
[+] Всего файлов в раздаче - 1:
Копейка.2002.DVDRIP-AVC.[-=DoMiNo=-].mkv1.60 GB

Текущая раздача:
ДатаКомментарии    РазмерПиры
2017-10-15 U Копейка (2002) DVDRip-AVC 1.60 GB ↑ 135 ↓ 62

Похожие раздачи по запросу - копейка:
2017-10-14 U Копейка (2002) DVDRip 2.06 GB ↑ 1039 ↓ 323

Отзывы
Зарегистрируйтесь чтобы добавить комментарий.
Обратная связь
Copyleft ©