↑↓Torrent.by
Поиск
Логин: Регистрация
Пароль: Восстановить пароль
Загрузка...

Чужая (2010) DVDRip-AVC от ExKinoRay

Скачать chuzhaya-2010-dvdrip-avc-ot-exkinoray.torrent
U Магнитная ссылка Размер: 745.74 MB Раздают: 199 Качают: 40 Добавлен: 2017-10-17 20:52:11
Чужая (2010) DVDRip-AVC от ExKinoRay

Название: Чужая
Оригинальное название: Чужая
Год выхода: 2010
Жанр:  драма, криминал
Режиссер: Антон Борматов
В ролях: Евгений Ткачук, Анатолий Отраднов, Дмитрий Ратомский, Кирилл Полухин, Евгений Мундум, Наталья Романычева, Александр Голубков, Олег Байкулов, Александр Корчагин, Сергей Сипливый

О фильме :
События, происходящие в фильме, вновь возвращают нас в лихие девяностые. Захваченный во время бандитской разборки Бабай склоняется к тому, чтобы выдать следствию известных ему авторитетов. Единственный способ остановить эти чистосердечные признания - взять в заложницы его сестру, у которой странная кличка "Чужая". И вот уже четверо братков в черных куртках, пугая добрых людей, мчат в Прагу за девчонкой, но найти ее - это только полдела. В жилах Чужой течет холодная кровь хищницы, и охотники очень скоро могут оказаться жертвами…

Страна: Россия
Студия: Профит
Продолжительность: 01:44:10
Язык: Русский

Файл
Формат: MKV
Качество: DVDRip-AVC
Видео: MPEG-4 AVC, 720x392, ~ 923 Кбит/с
Аудио:  AAC-LC, 2 ch, ~76 Кбит/с

Релиз:


[+] MI
Общее
Уникальный идентификатор : 206315302582021277931927130935026271868 (0x9B36E1C5B15B9CEA8EFF539B2350467C)
Полное имя : D:MOVIESChuzhaja.2010.ExKinoRay.mkv
Формат : Matroska
Версия формата : Version 4 / Version 2
Размер файла : 746 Мбайт
Продолжительность : 1 ч. 44 м.
Общий поток : 1001 Кбит/сек
Дата кодирования : UTC 2017-10-17 05:15:12
Программа кодирования : mkvmerge v15.0.0 ('Duel with the Devil') 64-bit
Библиотека кодирования : libebml v1.3.5 + libmatroska v1.4.5

Видео
Идентификатор : 1
Формат : AVC
Формат/Информация : Advanced Video Codec
Профиль формата : High@L4.1
Параметр CABAC формата : Да
Параметр RefFrames формата : 10 кадров
Идентификатор кодека : V_MPEG4/ISO/AVC
Продолжительность : 1 ч. 44 м.
Битрейт : 923 Кбит/сек
Ширина : 720 пикселей
Высота : 392 пикселя
Соотношение сторон : 1,85:1
Режим частоты кадров : Постоянный
Частота кадров : 25,000 кадров/сек
Цветовое пространство : YUV
Субдискретизация насыщенности : 4:2:0
Битовая глубина : 8 бит
Тип развёртки : Прогрессивная
Бит/(Пиксели*Кадры) : 0.131
Размер потока : 687 Мбайт (92%)
Библиотека кодирования : x264 core 152 r2851 ba24899
Настройки программы : cabac=1 / ref=10 / deblock=1:-3:-3 / analyse=0x3:0x133 / me=umh / subme=11 / psy=1 / psy_rd=1.00:0.15 / mixed_ref=1 / me_range=32 / chroma_me=1 / trellis=2 / 8x8dct=1 / cqm=0 / deadzone=21,11 / fast_pskip=0 / chroma_qp_offset=-3 / threads=6 / lookahead_threads=1 / sliced_threads=0 / nr=0 / decimate=0 / interlaced=0 / bluray_compat=0 / constrained_intra=0 / bframes=10 / b_pyramid=2 / b_adapt=2 / b_bias=0 / direct=3 / weightb=1 / open_gop=0 / weightp=2 / keyint=250 / keyint_min=24 / scenecut=40 / intra_refresh=0 / rc_lookahead=40 / rc=2pass / mbtree=0 / bitrate=923 / ratetol=1.0 / qcomp=0.60 / qpmin=0 / qpmax=69 / qpstep=4 / cplxblur=20.0 / qblur=0.5 / vbv_maxrate=50000 / vbv_bufsize=62500 / nal_hrd=none / filler=0 / ip_ratio=1.40 / pb_ratio=1.30 / aq=1:1.00
Default : Да
Forced : Нет

Аудио
Идентификатор : 2
Формат : AAC
Формат/Информация : Advanced Audio Codec
Профиль формата : LC
Идентификатор кодека : A_AAC
Продолжительность : 1 ч. 44 м.
Битрейт : 76,0 Кбит/сек
Каналы : 2 канала
Расположение каналов : Front: L R
Частота : 48,0 КГц
Частота кадров : 46,875 кадров/сек (1024 SPF)
Метод сжатия : С потерями
Задержка видео : 9 мс.
Размер потока : 56,6 Мбайт (8%)
Язык : Russian
Default : Да
Forced : Нет



Скриншоты:
[+] Всего файлов в раздаче - 1:
Chuzhaja.2010.ExKinoRay.mkv745.74 MB

Текущая раздача:
ДатаКомментарии    РазмерПиры
2017-10-17 U Чужая (2010) DVDRip-AVC от ExKinoRay 745.74 MB ↑ 199 ↓ 40

Показать еще раздачи по запросу чужая:
2017-09-27 U Васильев Андрей - Чужая сила (2017) МР3 903.95 MB ↑ 124 ↓ 23
2016-05-05 U Чужая страна / Strangerland (2015) HDRip от Scarabey | P 1.45 GB ↑ 64 ↓ 13
2016-05-04 U Чужая страна / Strangerland (2015) BDRip 1080p | Р 8.46 GB ↑ 542 ↓ 0
2016-05-04 U Чужая страна / Strangerland (2015) BDRip 720p | Р 5.20 GB ↑ 208 ↓ 60
2016-05-03 U Чужая страна / Strangerland (2015) BDRip от Twi7ter | P 1.41 GB ↑ 2245 ↓ 714
2016-05-03 U Чужая страна / Strangerland (2015) HDRip от MegaPeer | P 1К744.18 MB ↑ 159 ↓ 32
2016-02-26 U Чужая игра / Circus (2000) DVDRip-AVC от Brazzass 1К1.89 GB ↑ 24 ↓ 10

Отзывы
Зарегистрируйтесь чтобы добавить комментарий.
Обратная связь
Copyleft ©