↑↓Torrent.by
Поиск
Логин: Регистрация
Пароль: Восстановить пароль
Загрузка...

Тачки 3 / Cars 3 (2017) WEB-DLRip-AVC от New-Team | iTunes

Скачать tachki-3-cars-2017-web-dlrip-avc-ot-new-team-itunes.torrent
U Магнитная ссылка Размер: 1.38 GB Раздают: 120 Качают: 55 Добавлен: 2017-10-23 11:35:35
Тачки 3 / Cars 3 (2017) WEB-DLRip-AVC от New-Team | iTunes

Группа New-Team ВКонтакте
Подписывайтесь так же на мою группу ВКонтакте stalkerok | AVC рипы
Ссылка в группе New-Team
Присоединяйтесь!

Тачки 3
Cars 3

«Гонка продолжается, пока сверкает молния»

Страна: США
Жанр:  мультфильм, комедия, приключения, семейный, спорт

Год выпуска: 2017
Продолжительность: 01:42:23

Перевод: Профессиональный (полное дублирование) [iTunes]
Субтитры: русские (полные)
Оригинальная аудиодорожка: нет

Режиссер: Брайан Фи / Brian Fee

В ролях: Оуэн Уилсон, Кристела Алонзо, Крис Купер, Нэйтан Филлион, Ларри-кабельщик, Арми Хаммер, Рэй Мальоцци, Тони Шэлуб, Бонни Хант, Лиа ДеЛария, Керри Вашингтон, Боб Костас

Описание:
Встречайте самого знаменитого гонщика всех времен, легенду гоночного трека Молнию Маккуина!
Герой все еще продолжает показывать лучшие результаты на всех турнирах, однако победы даются ему не так легко, а конкуренция становится все жестче. Молнию Маккуина ждут захватывающие приключения, где он встретит новых друзей, а также поймет, что не только скорость и мощность мотора делают гонщика чемпионом.

Релиз:

Автор рипа: stalkerok

Семпл

Качество видео: WEB-DLRip-AVC [Cars 3 (2017) WEB-DL 1080p -BLUEBIRD]
Формат видео: MKV
Видео кодек: AVC
Аудио кодек: AC3
Видео: 1536 Кбит/сек, 960x402 (2.40:1), 23,976 кадр/сек, AVC
Аудио: русский, 384 Кбит/сек, 48 КГц, 5.1, AC3
Навигация по главам: есть


[+] x264/MediaInfo


x264 [info]: frame I:1325  Avg QP:18.58  size: 53198
x264 [info]: frame P:41258 Avg QP:20.72  size: 14300
x264 [info]: frame B:104716 Avg QP:22.88  size:  4963

General
Unique ID                                : 210884182526241174928948046095772547151 (0x9EA6D0F1FDB8AB969DC0F1AD8D77F84F)
Complete name                            : M:!Rips2017Cars 3 (2017)Cars.3.2017.WEB-DLRip-AVC.RUS.stalkerok.new-team.mkv
Format                                   : Matroska
Format version                           : Version 4 / Version 2
File size                                : 1.38 GiB
Duration                                 : 1 h 42 min
Overall bit rate                         : 1 923 kb/s
Movie name                               : Cars 3 (2017) (Rip by stalkerok)
Encoded date                             : UTC 2017-10-22 23:13:02
Writing application                      : mkvmerge v8.6.1 ('Flying') 64bit
Writing library                          : libebml v1.3.3 + libmatroska v1.4.4

Video
ID                                       : 1
Format                                   : AVC
Format/Info                              : Advanced Video Codec
Format profile                           : High@L4.1
Format settings, CABAC                   : Yes
Format settings, ReFrames                : 14 frames
Codec ID                                 : V_MPEG4/ISO/AVC
Duration                                 : 1 h 42 min
Bit rate                                 : 1 537 kb/s
Width                                    : 960 pixels
Height                                   : 402 pixels
Display aspect ratio                     : 2.40:1
Frame rate mode                          : Constant
Frame rate                               : 23.976 (24000/1001) FPS
Color space                              : YUV
Chroma subsampling                       : 4:2:0
Bit depth                                : 8 bits
Scan type                                : Progressive
Bits/(Pixel*Frame)                       : 0.166
Stream size                              : 1.10 GiB (80%)
Title                                    : Cars 3 (2017) (Rip by stalkerok)
Writing library                          : x264 core 150 r2833kMod df79067
Encoding settings                        : cabac=1 / ref=14 / deblock=1:-3:-2 / analyse=0x3:0x133 / me=umh / subme=11 / psy=1 / fade_compensate=0.00 / psy_rd=1.00:0.00 / mixed_ref=1 / me_range=32 / chroma_me=1 / trellis=2 / 8x8dct=1 / cqm=0 / deadzone=21,11 / fast_pskip=0 / chroma_qp_offset=-2 / threads=12 / lookahead_threads=3 / sliced_threads=0 / nr=0 / decimate=1 / interlaced=0 / bluray_compat=0 / constrained_intra=0 / bframes=14 / b_pyramid=2 / b_adapt=2 / b_bias=0 / direct=3 / weightb=1 / open_gop=0 / weightp=2 / keyint=240 / keyint_min=23 / scenecut=40 / intra_refresh=0 / rc_lookahead=60 / rc=crf / mbtree=0 / crf=19.3000 / qcomp=0.65 / qpmin=0 / qpmax=69 / qpstep=4 / vbv_maxrate=50000 / vbv_bufsize=62500 / crf_max=0.0 / nal_hrd=none / filler=0 / ip_ratio=1.40 / pb_ratio=1.30 / aq=3:0.80 / zones=135270,145567,q=32/146097,147298,q=32
Default                                  : Yes
Forced                                   : No

Audio
ID                                       : 2
Format                                   : AC-3
Format/Info                              : Audio Coding 3
Mode extension                           : CM (complete main)
Format settings, Endianness              : Big
Codec ID                                 : A_AC3
Duration                                 : 1 h 42 min
Bit rate mode                            : Constant
Bit rate                                 : 384 kb/s
Channel(s)                               : 6 channels
Channel positions                        : Front: L C R, Side: L R, LFE
Sampling rate                            : 48.0 kHz
Frame rate                               : 31.250 FPS (1536 spf)
Compression mode                         : Lossy
Stream size                              : 281 MiB (20%)
Title                                    : [DUB] DD 5.1 @ 384 kbps (iTunes)
Language                                 : Russian
Default                                  : No
Forced                                   : No

Text
ID                                       : 3
Format                                   : UTF-8
Codec ID                                 : S_TEXT/UTF8
Codec ID/Info                            : UTF-8 Plain Text
Duration                                 : 1 h 40 min
Bit rate                                 : 130 b/s
Count of elements                        : 1420
Stream size                              : 96.6 KiB (0%)
Title                                    : Full-length
Language                                 : Russian
Default                                  : No
Forced                                   : No

Menu
00:00:00.000                             : en:Champ McQueen
00:04:57.000                             : en:Storm Front
00:10:54.000                             : en:Crash
00:13:57.000                             : en:Wake-up Call
00:18:14.000                             : en:Phone Call
00:21:07.000                             : en:Modern Training
00:34:09.000                             : en:Deal
00:37:52.000                             : en:Beach
00:42:44.000                             : en:Crazy Eight
00:49:44.000                             : en:Cruz's Dream
00:53:57.000                             : en:FaceTime
00:58:17.000                             : en:Olive Branch
00:59:27.000                             : en:Smokey
01:02:16.000                             : en:Hud's Win
01:06:35.000                             : en:It's Over
01:08:33.000                             : en:Old School Training
01:15:47.000                             : en:Florida Arrival
01:20:57.000                             : en:Pit Stop
01:29:42.000                             : en:Victory Lane
01:32:17.000                             : en:Epilogue
01:34:00.000                             : en:End Credits




Скриншоты:
[+] Всего файлов в раздаче - 1:
Cars.3.2017.WEB-DLRip-AVC.RUS.stalkerok.new-team.mkv1.38 GB

Текущая раздача:
ДатаКомментарии    РазмерПиры
2017-10-23 U Тачки 3 / Cars 3 (2017) WEB-DLRip-AVC от New-Team | iTunes 1.38 GB ↑ 120 ↓ 55

Показать еще раздачи по запросу тачки:
2017-11-19 U Тачки 3 / Cars 3 (2017) BDRip от ExKinoRay | Лицензия 1.46 GB ↑ 130 ↓ 29
2017-11-19 U Тачки 3 / Cars 3 (2017) BDRip 1080p от New-Team & qqss44 | Лицензия 3К5.75 GB ↑ 94 ↓ 59
2017-11-18 U Тачки 3 / Cars 3 (2017) BDRip-AVC от HELLYWOOD | Лицензия 1.46 GB ↑ 56 ↓ 14
2017-11-18 U Тачки 3 / Cars 3 (2017) BDRip от MegaPeer | Лицензия 1.46 GB ↑ 59 ↓ 25
2017-11-18 U Тачки 3 / Cars 3 (2017) BDRip 1080p от OlLanDGroup | Лицензия 8.78 GB ↑ 80 ↓ 55
2017-11-18 U Тачки 3 / Cars 3 (2017) BDRip-AVC от HELLYWOOD | Лицензия 2.18 GB ↑ 194 ↓ 18
2017-11-10 U Тачки 3 / Cars 3 (2017) BDRip 1080p от Ash61 | 3D-Video | halfOU | iTunes 9.06 GB ↑ 43 ↓ 19

Отзывы
Зарегистрируйтесь чтобы добавить комментарий.
Обратная связь
Copyleft ©