↑↓Torrent.by
Поиск
Логин: Регистрация
Пароль: Восстановить пароль
Загрузка...

Рок-фестиваль "КИНОпробы" (2017) WEBRip-AVC от ExKinoRay

Скачать rok-festival-kinoproby-2017-webrip-avc-ot-exkinoray.torrent
U Магнитная ссылка Размер: 746.16 MB Раздают: 98 Качают: 33 Добавлен: 2017-10-23 13:21:38
Рок-фестиваль

Информация о концерте
Название: Рок-фестиваль
Оригинальное название: "КИНОпробы"
Год выхода: 2017
Жанр: Рок, концерт
Продолжительность: 02:17:37

О концерте :
Полная версия фестиваля "КИНОпробы", прошедший в городе Окуловка в 2017 г., посвящённый 55-летию Виктора Цоя. В фестивале приняли участие Окуловские команды: "Splash Your Feelings", "Проект-А", "Вокально-инструментальная группа гармония". И конечно же звезды нашего русского-рока: "Пилот","Кукрыниксы","Бригадный Подряд", "Северный Флот", "КняZz", "Louna", "FPG". Завершила фестиваль группа "Чайф".

Файл
Формат: MKV
Качество: WEBRip-AVC
Видео: MPEG-4 AVC, 720x400, ~ 680 Кбит/с
Аудио:  AAC-LC, 2 ch, ~ 76 Кбит/с

Релиз:
[+] Полный список исполнителей
1. СЕВЕРНЫЙ ФЛОТ, КОНЧИТСЯ ЛЕТО

2. СЕВЕРНЫЙ ФЛОТ, ПОСЛЕДНИЙ ГЕРОЙ

3. СЕВЕРНЫЙ ФЛОТ, СЛЕДИ ЗА СОБОЙ

4. БРИГАДНЫЙ ПОДРЯД, ПОПРОБУЙ СПЕТЬ ВМЕСТЕ СО МНОЙ

5. БРИГАДНЫЙ ПОДРЯД, МУРАВЕЙНИК

6. БРИГАДНЫЙ ПОДРЯД, МЕСТО ДЛЯ ШАГА ВПЕРЕД

7. ПИЛОТ, КОГДА-ТО ТЫ БЫЛ БИТНИКОМ

8. ПИЛОТ, ПАЧКА СИГАРЕТ

9. ПИЛОТ, ГРУППА КРОВИ

10. ПИЛОТ, НЕТ ИНОГО РАЯ

11. КУКРЫНИКСЫ И ЮРИЙ КАСПАРЯН, ПЕЧАЛЬ

12. КУКРЫНИКСЫ И ЮРИЙ КАСПАРЯН, НАМ С ТОБОЙ

13. КУКРЫНИКСЫИ ЮРИЙ КАСПАРЯН, ЗВЕЗДА ПО ИМЕНИ СОЛНЦЕ

14. F.P.G, ПОРА

15. F.P.G,  ВЕРЬ МНЕ

16. F.P.G, МОИ ДРУЗЬЯ

17. F.P.G, НОЧЬ

18. LOUNA, ДАЛЬШЕ ДЕЙСТВОВАТЬ БУДЕМ МЫ

19. LOUNA, СТУК

20. LOUNA, ПЕРЕМЕН

21. КняZz, НЕВЕСЁЛАЯ ПЕСНЯ

22. ЧАЙФ, МАМА - АНАРХИЯ

23. ЧАЙФ, КАЖДУЮ НОЧЬ

24. ЧАЙФ, КОГДА-ТО ТЫ БЫЛ БИТНИКОМ

25. ЧАЙФ, ПЕЧАЛЬ

26. ЧАЙФ, РОК-Н-РОЛЛ ЭТОЙ НОЧИ

27. ЧАЙФ, В ЕЁ ГЛАЗАХ

28. ЧАЙФ, ПОПЛАЧЬ О НЁМ



[+] MI
Общее
Уникальный идентификатор : 221970197773749963432355676247733832826 (0xA6FDE7B25DBF31D4BF53C14872D80C7A)
Полное имя : D:MOVIESKINOprobi.2017.ExKinoRay.mkv
Формат : Matroska
Версия формата : Version 2
Размер файла : 746 Мбайт
Продолжительность : 2 ч. 17 м.
Общий поток : 758 Кбит/сек
Дата кодирования : UTC 2017-10-23 04:34:14
Программа кодирования : mkvmerge v17.0.0 ('Be Ur Friend') 64-bit
Библиотека кодирования : libebml v1.3.5 + libmatroska v1.4.8

Видео
Идентификатор : 1
Формат : AVC
Формат/Информация : Advanced Video Codec
Профиль формата : High@L4.1
Параметр CABAC формата : Да
Параметр RefFrames формата : 10 кадров
Идентификатор кодека : V_MPEG4/ISO/AVC
Продолжительность : 2 ч. 17 м.
Битрейт : 680 Кбит/сек
Ширина : 720 пикселей
Высота : 400 пикселей
Соотношение сторон : 16:9
Режим частоты кадров : Постоянный
Частота кадров : 25,000 кадров/сек
Цветовое пространство : YUV
Субдискретизация насыщенности : 4:2:0
Битовая глубина : 8 бит
Тип развёртки : Прогрессивная
Бит/(Пиксели*Кадры) : 0.094
Размер потока : 669 Мбайт (90%)
Библиотека кодирования : x264 core 152 r2851kMod ba24899
Настройки программы : cabac=1 / ref=10 / deblock=1:-2:-1 / analyse=0x3:0x133 / me=umh / subme=11 / psy=1 / fade_compensate=0.00 / psy_rd=1.00:0.05 / mixed_ref=1 / me_range=32 / chroma_me=1 / trellis=2 / 8x8dct=1 / cqm=0 / deadzone=21,11 / fast_pskip=0 / chroma_qp_offset=-3 / threads=6 / lookahead_threads=1 / sliced_threads=0 / nr=0 / decimate=0 / interlaced=0 / bluray_compat=0 / constrained_intra=0 / bframes=10 / b_pyramid=2 / b_adapt=2 / b_bias=0 / direct=3 / weightb=1 / open_gop=0 / weightp=2 / keyint=250 / keyint_min=24 / scenecut=40 / intra_refresh=0 / rc_lookahead=40 / rc=2pass / mbtree=1 / bitrate=680 / ratetol=1.0 / qcomp=0.60 / qpmin=0 / qpmax=69 / qpstep=4 / cplxblur=20.0 / qblur=0.5 / vbv_maxrate=50000 / vbv_bufsize=62500 / nal_hrd=none / filler=0 / ip_ratio=1.40 / aq=3:1.00
Default : Да
Forced : Нет

Аудио
Идентификатор : 2
Формат : AAC
Формат/Информация : Advanced Audio Codec
Профиль формата : LC
Идентификатор кодека : A_AAC
Продолжительность : 2 ч. 17 м.
Битрейт : 76,0 Кбит/сек
Каналы : 2 канала
Расположение каналов : Front: L R
Частота : 44,1 КГц
Частота кадров : 43,066 кадра/сек (1024 SPF)
Метод сжатия : С потерями
Задержка видео : 10 мс.
Размер потока : 74,8 Мбайт (10%)
Язык : Russian
Default : Да
Forced : Нет



Скриншоты:
[+] Всего файлов в раздаче - 1:
KINOprobi.2017.ExKinoRay.mkv746.16 MB

Текущая раздача:
ДатаКомментарии    РазмерПиры
2017-10-23 U Рок-фестиваль "КИНОпробы" (2017) WEBRip-AVC от ExKinoRay 746.16 MB ↑ 98 ↓ 33

Показать еще раздачи по запросу фестиваль:
2017-08-19 U Международный музыкальный фестиваль Жара [01-02 из 03] (2017) HDTVRip от GeneralFilm 1К3.67 GB ↑ 237 ↓ 91
2017-08-12 U Международный музыкальный фестиваль Жара [01 из 03] (2017) HDTVRip от GeneralFilm 1.85 GB ↑ 73 ↓ 35
2017-07-12 U Международный музыкальный фестиваль. Белые ночи Санкт-Петербурга (Гала-концерт) (2017) HDTVRip от GeneralFilm 1К1.87 GB ↑ 386 ↓ 28
2017-02-25 U Лига смеха. Фестиваль юмора в Одессе 2 [03x02] (2017) WEBRip 1080p 3.92 GB ↑ 83 ↓ 32
2017-02-25 U Лига смеха. Фестиваль юмора в Одессе 2 [03x02] (2017) SATRip 1.75 GB ↑ 428 ↓ 75
2017-02-18 U Лига смеха. Фестиваль юмора в Одессе 1 [03x01] (2017) SATRip 1.82 GB ↑ 715 ↓ 4
2016-10-25 U КВН - Музыкальный фестиваль «Голосящий КиВиН» [эфир от 23.10] (2016) HDTVRip 720p 4.47 GB ↑ 262 ↓ 36

Отзывы
Зарегистрируйтесь чтобы добавить комментарий.
Обратная связь
Copyleft ©