↑↓Torrent.by
Поиск
Логин: Регистрация
Пароль: Восстановить пароль
Загрузка...

Салют-7. История одного подвига (2017) HDTVRip 720p от New-Team

Скачать salyut-7-istoriya-odnogo-podviga-2017-hdtvrip-720p-ot-new-team.torrent
U Магнитная ссылка Размер: 1.46 GB Раздают: 222 Качают: 110 Добавлен: 2017-10-26 19:04:32
Салют-7. История одного подвига (2017) HDTVRip 720p от New-Team

Мы "В КОНТАКТЕ"

Страна: Россия
Производство: Телеканал «Россия»

Жанр:  исторический, документальный, научно-популярный
Год выпуска: 2017
Продолжительность: 00:44:21

Перевод: Не требуется
Cубтитры: нет
Оригинальная аудиодорожка: русский

Режиссер: Александр Сладков

Описание:
Фильм о драматических событиях, происходивших на орбите в 1985 году, и о настоящих героях, участвовавших в спасении космической станции «Салют-7».
Владимир Джанибеков и Виктор Савиных отправились в космос, чтобы спасти неуправляемую станцию. Они летели навстречу неизвестности, но были уверены, что смогут выполнить это беспрецедентное по сложности задание. На Земле уверенности в благополучном возвращении космонавтов было немного. На орбите развернулся настоящий космический детектив.
Фильм вышел накануне кинопремьеры - игрового фильма «Салют-7». Итак, зрители смогут сначала погрузиться в исторический контекст и технические нюансы, а затем пережить невероятную историю уже на большом экране.

[url=http://www.kinopoisk.ru/level/1/film/1049376/" target="_blank">


[+] MediaInfo

Общее
Полное имя                               : Salyut-7.Istoriya.odnogo.podviga.2017.BDRip-720p_[New-team]_by_AVP_Studio.mkv
Формат                                   : Matroska
Версия формата                           : Version 2
Размер файла                             : 1,46 Гбайт
Продолжительность                        : 44 м. 21 с.
Общий поток                              : 4708 Кбит/сек
Дата кодирования                         : UTC 2017-10-25 15:18:37
Программа кодирования                    : mkvmerge v6.1.0 ('Old Devil') built on Mar  4 2013 09:10:42
Библиотека кодирования                   : libebml v1.3.0 + libmatroska v1.4.0

Видео
Идентификатор                            : 1
Формат                                   : AVC
Формат/Информация                        : Advanced Video Codec
Профиль формата                          : High@L4.1
Параметр CABAC формата                   : Да
Параметр RefFrames формата               : 8 кадров
Идентификатор кодека                     : V_MPEG4/ISO/AVC
Продолжительность                        : 44 м. 21 с.
Битрейт                                  : 4516 Кбит/сек
Ширина                                   : 1280 пикселей
Высота                                   : 720 пикселей
Соотношение сторон                       : 16:9
Режим частоты кадров                     : Постоянный
Частота кадров                           : 25,000 кадров/сек
Цветовое пространство                    : YUV
Субдискретизация насыщенности            : 4:2:0
Битовая глубина                          : 8 бит
Тип развёртки                            : Прогрессивная
Бит/(Пиксели*Кадры)                      : 0.196
Размер потока                            : 1,37 Гбайт (94%)
Библиотека кодирования                   : x264 core 130 r2273 b3065e6
Настройки программы                      : cabac=1 / ref=8 / deblock=1:-3:-3 / analyse=0x3:0x133 / me=umh / subme=10 / psy=1 / psy_rd=1.00:0.00 / mixed_ref=1 / me_range=32 / chroma_me=1 / trellis=2 / 8x8dct=1 / cqm=0 / deadzone=21,11 / fast_pskip=1 / chroma_qp_offset=-2 / threads=6 / lookahead_threads=1 / sliced_threads=0 / nr=0 / decimate=0 / interlaced=0 / bluray_compat=0 / constrained_intra=0 / bframes=8 / b_pyramid=2 / b_adapt=2 / b_bias=0 / direct=3 / weightb=1 / open_gop=0 / weightp=2 / keyint=250 / keyint_min=25 / scenecut=40 / intra_refresh=0 / rc=2pass / mbtree=0 / bitrate=4516 / ratetol=1.0 / qcomp=0.60 / qpmin=0 / qpmax=69 / qpstep=4 / cplxblur=20.0 / qblur=0.5 / ip_ratio=1.40 / pb_ratio=1.30 / aq=1:1.00
Default                                  : Да
Forced                                   : Нет

Аудио
Идентификатор                            : 2
Формат                                   : AC-3
Формат/Информация                        : Audio Coding 3
Параметр Endianness формата              : Big
Идентификатор кодека                     : A_AC3
Продолжительность                        : 44 м. 21 с.
Вид битрейта                             : Постоянный
Битрейт                                  : 192 Кбит/сек
Каналы                                   : 2 канала
Расположение каналов                     : Front: L R
Частота                                  : 48,0 КГц
Частота кадров                           : 31,250 кадров/сек (1536 SPF)
Битовая глубина                          : 16 бит
Метод сжатия                             : С потерями
Размер потока                            : 60,9 Мбайт (4%)
Default                                  : Да
Forced                                   : Нет



Скриншоты:
[+] Всего файлов в раздаче - 1:
Salyut-7.Istoriya.odnogo.podviga.2017.BDRip-720p_[New-team]_by_AVP_Studio.mkv1.46 GB

Текущая раздача:
ДатаКомментарии    РазмерПиры
2017-10-26 U Салют-7. История одного подвига (2017) HDTVRip 720p от New-Team 1 К 1.46 GB ↑ 222 ↓ 110

Показать еще раздачи по запросу салют:
Вчера U Салют-7 (2017) WEB-DLRip от Scarabey | iTunes 744.86 MB ↑ 77 ↓ 29
2017-11-23 U Салют-7 (2017) WEB-DLRip от Scarabey | iTunes 1.45 GB ↑ 248 ↓ 97
2017-11-21 U Салют-7 (2017) WEB-DLRip-AVC от ExKinoRay | iTunes 744.51 MB ↑ 95 ↓ 82
2017-11-21 U Салют-7 (2017) WEB-DLRip от Generalfilm | КПК | iTunes 403.11 MB ↑ 104 ↓ 30
2017-11-21 U Салют-7 (2017) WEB-DLRip-AVC от ExKinoRay | iTunes 1.65 GB ↑ 265 ↓ 237
2017-11-21 U Салют-7 (2017) WEB-DLRip от MegaPeer | iTunes 745.28 MB ↑ 517 ↓ 162
2017-11-21 U Салют-7 (2017) WEB-DLRip от MegaPeer | iTunes 1.46 GB ↑ 415 ↓ 201

Отзывы
Fenix3223
Что-то фильм какой-то короткий 44мин, сам я его ещё не смотрел, за релиз спасибо

Зарегистрируйтесь чтобы добавить комментарий.
Обратная связь
Copyleft ©