↑↓Torrent.by
Поиск
Логин: Регистрация
Пароль: Восстановить пароль
Загрузка...

Гадкий я 3 / Despicable Me 3 (2017) BDRip 720p от ExKinoRay | Лицензия

Скачать gadkiy-ya-3-despicable-me-2017-bdrip-720p-ot-exkinoray-licenziya.torrent
U Магнитная ссылка Размер: 4.11 GB Раздают: 55 Качают: 153 Добавлен: 2017-10-28 15:43:24
Гадкий я 3 / Despicable Me 3 (2017) BDRip 720p от ExKinoRay | Лицензия

Название: Гадкий Я 3
Оригинальное название: Despicable Me 3
Год выхода: 2017
Жанр: Мультфильм, фантастика, боевик, комедия, приключения, семейный
Режиссер: Эрик Гуильон, Кайл Балда, Пьер Коффан
В ролях: Стив Карелл, Кристен Уиг, Трей Паркер, Миранда Косгров, Дэна Гайер, Пьер Коффан, Стив Кугэн, Джули Эндрюс, Дженни Слейт

О фильме:
Грядет третье пришествие. Многодетный суперагент, роковая красотка и бессмертные миньоны на подходе. Готовьтесь. Они будут править миром.

Страна: США
Студия: Illumination Entertainment, Universal Pictures
Продолжительность: 01:29:40
Перевод: Дублированный | Лицензия

Файл
Качество: BDRip 720p
Видео: MPEG-4 AVC, 1280x536, 4700 Kbit/s, 23.976 fps
Звук:
Аудио #01: 48 kHz, DTS, 5.1, 768 Kbps | Дублированный | RUS |
Аудио #02: 48 kHz, AC3, 5.1, 448 Kbps | Дублированный | RUS |
Аудио #03: 48 kHz, AC3, 5.1, 640 Kbps | Оригинал | ENG |
Субтитры: Русские (forced, full), английские

Релиз: Автор релиза:


[+] MI
General
Unique ID                   : 197673905140807218173149661505676009625 (0x94B69BFBF79A0044807A165C0C326099)
Complete name               : G:VideoSSDDespicable.Me.3.2017.Lic.BDRip.720p.ExKinoRay.mkv
Format                      : Matroska
Format version              : Version 4 / Version 2
File size                   : 4.11 GiB
Duration                    : 1 h 29 min
Overall bit rate            : 6 554 kb/s
Encoded date                : UTC 2017-10-28 04:02:55
Writing application         : mkvmerge v17.0.0 ('Be Ur Friend') 64-bit
Writing library             : libebml v1.3.5 + libmatroska v1.4.8

Video
ID                          : 1
Format                      : AVC
Format/Info                 : Advanced Video Codec
Format profile              : High@L4.1
Format settings             : CABAC / 12 Ref Frames
Format settings, CABAC      : Yes
Format settings, RefFrames  : 12 frames
Codec ID                    : V_MPEG4/ISO/AVC
Duration                    : 1 h 29 min
Bit rate                    : 4 700 kb/s
Width                       : 1 280 pixels
Height                      : 536 pixels
Display aspect ratio        : 2.40:1
Frame rate mode             : Constant
Frame rate                  : 23.976 (24000/1001) FPS
Color space                 : YUV
Chroma subsampling          : 4:2:0
Bit depth                   : 8 bits
Scan type                   : Progressive
Bits/(Pixel*Frame)          : 0.286
Stream size                 : 2.94 GiB (72%)
Writing library             : x264 core 148 r2705 3f5ed56
Encoding settings           : cabac=1 / ref=12 / deblock=1:-3:-3 / analyse=0x3:0x133 / me=umh / subme=10 / psy=1 / psy_rd=1.05:0.05 / mixed_ref=1 / me_range=32 / chroma_me=1 / trellis=2 / 8x8dct=1 / cqm=0 / deadzone=21,11 / fast_pskip=0 / chroma_qp_offset=-3 / threads=12 / lookahead_threads=2 / sliced_threads=0 / nr=0 / decimate=0 / interlaced=0 / bluray_compat=0 / constrained_intra=0 / bframes=8 / b_pyramid=2 / b_adapt=2 / b_bias=0 / direct=3 / weightb=1 / open_gop=0 / weightp=2 / keyint=240 / keyint_min=23 / scenecut=40 / intra_refresh=0 / rc_lookahead=50 / rc=2pass / mbtree=0 / bitrate=4700 / ratetol=1.0 / qcomp=0.60 / qpmin=0 / qpmax=69 / qpstep=4 / cplxblur=20.0 / qblur=0.5 / vbv_maxrate=50000 / vbv_bufsize=62500 / nal_hrd=none / filler=0 / ip_ratio=1.40 / pb_ratio=1.30 / aq=3:0.80
Language                    : English
Default                     : Yes
Forced                      : No

Audio #1
ID                          : 2
Format                      : DTS
Format/Info                 : Digital Theater Systems
Mode                        : 16
Format settings, Endianness : Big
Codec ID                    : A_DTS
Duration                    : 1 h 29 min
Bit rate mode               : Constant
Bit rate                    : 768 kb/s
Channel(s)                  : 6 channels
Channel positions           : Front: L C R, Side: L R, LFE
Sampling rate               : 48.0 kHz
Frame rate                  : 93.750 FPS (512 SPF)
Bit depth                   : 24 bits
Compression mode            : Lossy
Stream size                 : 493 MiB (12%)
Title                       : Dub [License]
Language                    : Russian
Default                     : Yes
Forced                      : No

Audio #2
ID                          : 3
Format                      : AC-3
Format/Info                 : Audio Coding 3
Format settings, Endianness : Big
Codec ID                    : A_AC3
Duration                    : 1 h 29 min
Bit rate mode               : Constant
Bit rate                    : 448 kb/s
Channel(s)                  : 6 channels
Channel positions           : Front: L C R, Side: L R, LFE
Sampling rate               : 48.0 kHz
Frame rate                  : 31.250 FPS (1536 SPF)
Bit depth                   : 16 bits
Compression mode            : Lossy
Stream size                 : 287 MiB (7%)
Title                       : Dub
Language                    : Russian
Service kind                : Complete Main
Default                     : No
Forced                      : No

Audio #3
ID                          : 4
Format                      : AC-3
Format/Info                 : Audio Coding 3
Format settings, Endianness : Big
Codec ID                    : A_AC3
Duration                    : 1 h 29 min
Bit rate mode               : Constant
Bit rate                    : 640 kb/s
Channel(s)                  : 6 channels
Channel positions           : Front: L C R, Side: L R, LFE
Sampling rate               : 48.0 kHz
Frame rate                  : 31.250 FPS (1536 SPF)
Bit depth                   : 16 bits
Compression mode            : Lossy
Stream size                 : 410 MiB (10%)
Title                       : Original
Language                    : English
Service kind                : Complete Main
Default                     : No
Forced                      : No

Text #1
ID                          : 5
Format                      : UTF-8
Codec ID                    : S_TEXT/UTF8
Codec ID/Info               : UTF-8 Plain Text
Duration                    : 1 h 10 min
Bit rate                    : 1 b/s
Count of elements           : 29
Stream size                 : 962 Bytes (0%)
Title                       : Forced
Language                    : Russian
Default                     : Yes
Forced                      : No

Text #2
ID                          : 6
Format                      : UTF-8
Codec ID                    : S_TEXT/UTF8
Codec ID/Info               : UTF-8 Plain Text
Duration                    : 1 h 20 min
Bit rate                    : 86 b/s
Count of elements           : 1083
Stream size                 : 51.1 KiB (0%)
Title                       : Full
Language                    : Russian
Default                     : No
Forced                      : No

Text #3
ID                          : 7
Format                      : UTF-8
Codec ID                    : S_TEXT/UTF8
Codec ID/Info               : UTF-8 Plain Text
Duration                    : 1 h 21 min
Bit rate                    : 108 b/s
Count of elements           : 1527
Stream size                 : 64.7 KiB (0%)
Title                       : SDH Colored
Language                    : English
Default                     : No
Forced                      : No

Menu
00:00:00.000                : en:00:00:00.000
00:03:06.103                : en:00:03:06.103
00:07:57.977                : en:00:07:57.977
00:11:12.839                : en:00:11:12.839
00:16:15.766                : en:00:16:15.766
00:20:07.498                : en:00:20:07.498
00:24:07.988                : en:00:24:07.988
00:28:57.069                : en:00:28:57.069
00:32:55.348                : en:00:32:55.348
00:39:01.839                : en:00:39:01.839
00:42:44.187                : en:00:42:44.187
00:46:47.179                : en:00:46:47.179
00:50:55.636                : en:00:50:55.636
00:56:12.077                : en:00:56:12.077
01:00:02.265                : en:01:00:02.265
01:05:41.229                : en:01:05:41.229
01:10:14.544                : en:01:10:14.544
01:14:33.761                : en:01:14:33.761
01:19:29.723                : en:01:19:29.723
01:21:56.995                : en:01:21:56.995



Скриншоты:
[+] Всего файлов в раздаче - 1:
Despicable.Me.3.2017.Lic.BDRip.720p.ExKinoRay.mkv4.11 GB

Текущая раздача:
ДатаКомментарии    РазмерПиры
2017-10-28 U Гадкий я 3 / Despicable Me 3 (2017) BDRip 720p от ExKinoRay | Лицензия 1 К 4.11 GB ↑ 55 ↓ 153

Показать еще раздачи по запросу гадкий:
2017-11-01 U Гадкий я 3 / Despicable Me 3 (2017) HDRip от Scarabey | Лицензия 1.45 GB ↑ 127 ↓ 33
2017-10-31 U Гадкий я 3 / Despicable Me 3 (2017) BDRip-AVC от New-Team | Лицензия 761.60 MB ↑ 48 ↓ 9
2017-10-30 U Гадкий я 3 / Despicable Me 3 (2017) BDRip-AVC от New-Team | Лицензия 1.44 GB ↑ 69 ↓ 12
2017-10-29 U Гадкий я 3 / Despicable Me 3 (2017) BDRip-AVC от New-Team | Лицензия 2.10 GB ↑ 111 ↓ 26
2017-10-29 U Гадкий я 3 / Despicable Me 3 (2017) HDRip от MegaPeer | Лицензия 746.12 MB ↑ 169 ↓ 8
2017-10-29 U Гадкий я 3 / Despicable Me 3 (2017) BDRip-HEVC 1080p от HEVC CLUB | Лицензия 4.15 GB ↑ 97 ↓ 35
2017-10-28 U Гадкий я 3 / Despicable Me 3 (2017) BDRip 720p от HELLYWOOD | Лицензия 4.13 GB ↑ 83 ↓ 41

Отзывы
serschss241
Мультфильм понравился. Рейтинг на кинопоиске считаю заниженным.
Динамичный, смешной, интересный. И взрослым и детям понравился.
Качество видео, звука отличное. 10/10

Зарегистрируйтесь чтобы добавить комментарий.
Обратная связь
Copyleft ©