↑↓Torrent.by
Поиск
Логин: Регистрация
Пароль: Восстановить пароль
Загрузка...

Как убивали СССР на детекторе лжи охрана Горбачева. На самом деле [26.10] (2017) HDTVRip 720p

Скачать kak-ubivali-sssr-na-detektore-lzhi-ohrana-gorbacheva-samom-dele-26-10-2017-hdtvrip-720p.torrent
U Магнитная ссылка Размер: 1.41 GB Раздают: 135 Качают: 51 Добавлен: 2017-10-29 15:45:42
Как убивали СССР на детекторе лжи охрана Горбачева. На самом деле [26.10] (2017) HDTVRip 720p

Название: Как убивали СССР: на детекторе лжи охрана Горбачева. На самом деле (Выпуск от 26.10.17)
Год выхода: 2017
Жанр: Телепередача, ток-шоу
В ролях: Дмитрий Шепелев, Андрей Караулов, Вячеслав Генералов, Леонид Прошкин, Александр Проханов, Роман Устюжанин, Олег Попцов, Сабина Пантус, Олег Бакланов

О фильме:
19 августа 1991 года в Москве была предпринята попытка государственного переворота. По всем каналам транслировали балет «Лебединое озеро». Во время утреннего выпуска новостей сообщили о создании ГКЧП, было объявлено, что президент страны Михаил Горбачев находится на даче в Форосе, что он серьезно болен и по состоянию здоровья больше не может руководить страной. Исполнение его обязанностей взял на себя председатель ГКЧП Геннадий Янаев.
Позже стало ясно, что Горбачева вместе с семьей держали в заложниках на даче, без телефонной связи и телевидения. Это длилось 72 часа — до провала путча и ареста ГКЧП. Кадры освобожденного Михаил Горбачева, спускающегося вместе с супругой по трапу самолета в ночь на 22 августа, облетели весь мир.
«Законного президента СССР вызволили из предательского плена, и он возвращается в Москву» — так писали тогда газеты и именно такой была официальная версия. Но насколько она соответствует истине? Действительно ли президент страны ничего не знал о готовящемся перевороте? На самом ли деле он находился в заточении и был политическим узником заговорщиков?
Впервые на детекторе лжи пройдут проверку непосредственные участники августовских событий 1991 года и члены ГКЧП. Эксперты выяснят, что на самом деле происходило на крымском побережье на президентской даче в Форосе.

Страна: Россия
Студия: Первый канал
Продолжительность: 00:53:48
Перевод: Не требуется
Реклама: присутствуют видео вставки рекламы

Файл
Кодек: h.264
Качество: HDTVRip 720p
Видео: AVC, 1280x720 (16:9), ~3800 Kbps, 24 fps
Звук: AAC, 2 ch, 104 Kbps, 48 kHz
[+] MediaInfo

General
Unique ID                   : 182091598683259341410191323951329781409 (0x88FD90F5ED3A8CB39F527672B85126A1)
Complete name               : D:FilmКак убивали СССР на детекторе лжи охрана Горбачева.mkv
Format                      : Matroska
Format version              : Version 4 / Version 2
File size                   : 1.41 GiB
Duration                    : 53 min 48 s
Overall bit rate            : 3 747 kb/s
Encoded date                : UTC 2017-10-29 05:43:20
Writing application         : mkvmerge v17.0.0 ('Be Ur Friend') 64-bit
Writing library             : libebml v1.3.5 + libmatroska v1.4.8
Cover                       : Yes
Attachments                 : cover.png

Video
ID                          : 1
Format                      : AVC
Format/Info                 : Advanced Video Codec
Format profile              : High@L3.1
Format settings             : CABAC / 4 Ref Frames
Format settings, CABAC      : Yes
Format settings, RefFrames  : 4 frames
Codec ID                    : V_MPEG4/ISO/AVC
Duration                    : 53 min 48 s
Bit rate                    : 3 800 kb/s
Width                       : 1 280 pixels
Height                      : 720 pixels
Display aspect ratio        : 16:9
Frame rate mode             : Variable
Frame rate                  : 24.000 FPS
Color space                 : YUV
Chroma subsampling          : 4:2:0
Bit depth                   : 8 bits
Scan type                   : Progressive
Bits/(Pixel*Frame)          : 0.172
Stream size                 : 1.37 GiB (97%)
Writing library             : x264 core 118
Encoding settings           : cabac=1 / ref=3 / deblock=1:0:0 / analyse=0x3:0x133 / me=hex / subme=9 / psy=1 / psy_rd=1.00:0.00 / mixed_ref=1 / me_range=16 / chroma_me=1 / trellis=1 / 8x8dct=1 / cqm=0 / deadzone=21,11 / fast_pskip=1 / chroma_qp_offset=-2 / threads=36 / sliced_threads=0 / nr=0 / decimate=1 / interlaced=0 / bluray_compat=0 / constrained_intra=0 / bframes=3 / b_pyramid=2 / b_adapt=1 / b_bias=0 / direct=1 / weightb=1 / open_gop=0 / weightp=2 / keyint=25 / keyint_min=13 / scenecut=0 / intra_refresh=0 / rc_lookahead=25 / rc=abr / mbtree=0 / bitrate=3800 / ratetol=1.0 / qcomp=0.60 / qpmin=0 / qpmax=40 / qpstep=4 / vbv_maxrate=4500 / vbv_bufsize=3800 / nal_hrd=none / ip_ratio=1.40 / pb_ratio=1.30 / aq=1:1.00
Language                    : Russian
Default                     : Yes
Forced                      : No

Audio
ID                          : 2
Format                      : AAC
Format/Info                 : Advanced Audio Codec
Format profile              : LC
Codec ID                    : A_AAC-2
Duration                    : 53 min 48 s
Bit rate                    : 104 kb/s
Channel(s)                  : 2 channels
Channel positions           : Front: L R
Sampling rate               : 48.0 kHz
Frame rate                  : 46.875 FPS (1024 SPF)
Compression mode            : Lossy
Delay relative to video     : -80 ms
Stream size                 : 40.0 MiB (3%)
Language                    : Russian
Default                     : Yes
Forced                      : No




Скриншоты:
[+] Всего файлов в раздаче - 1:
Как убивали СССР на детекторе лжи охрана Горбачева.mkv1.41 GB

Текущая раздача:
ДатаКомментарии    РазмерПиры
2017-10-29 U Как убивали СССР на детекторе лжи охрана Горбачева. На самом деле [26.10] (2017) HDTVRip 720p 1.41 GB ↑ 135 ↓ 51

Похожие раздачи по запросу - убивали:
2017-03-19 U Савельев Андрей - Как убивали СССР. Кто стал миллиардером (2016) RTF 1К9.02 MB ↑ 176 ↓ 2

Отзывы
Зарегистрируйтесь чтобы добавить комментарий.
Обратная связь
Copyleft ©