↑↓Torrent.by
Поиск
Логин: Регистрация
Пароль: Восстановить пароль
Загрузка...

Гадкий я 3 / Despicable Me 3 (2017) BDRip-HEVC 1080p от HEVC CLUB | Лицензия

Скачать gadkiy-ya-3-despicable-me-2017-bdrip-hevc-1080p-ot-club-licenziya.torrent
U Магнитная ссылка Размер: 4.15 GB Раздают: 96 Качают: 35 Добавлен: 2017-10-29 16:41:14
Гадкий я 3 / Despicable Me 3 (2017) BDRip-HEVC 1080p от HEVC CLUB | Лицензия

Название: Гадкий я 3
Оригинальное название: Despicable Me 3

Год выпуска: 2017
Страна: США
Жанр:  Мультфильм, фантастика, боевик, комедия, приключения, семейный
Продолжительность: 01:29:40
Перевод: Дублированный [Лицензия]
Субтитры: Русские, английские

В ролях: Стив Карелл, Кристен Уиг, Трей Паркер, Миранда Косгров, Дэна Гайер, Пьер Коффан, Стив Кугэн, Джули Эндрюс, Дженни Слейт
Режиссёр: Эрик Гуильон, Кайл Балда, Пьер Коффан

Описание: Грядет третье пришествие. Многодетный суперагент, роковая красотка и бессмертные миньоны на подходе. Готовьтесь. Они будут править миром.

Качество: BDRip-HEVC 1080p
Формат: MKV
Видео кодек: x265@10bit
Аудио кодек: AC3, DTS
Видео: 1920x804, 23,976 fps, HEVC, ~5217 kbps, 10bit
Аудио: Rus, 48 kHz/24-bit, DTS 5.1, ~768 kbps | Дублированный
Аудио: Eng, 48 kHz/16-bit, AC3 5.1, ~640 kbps | Оригинал
Навигация по главам: Присутствует

Автор рипа: Alex_A

Семпл


[+] Внимание!
- H.265/HEVC (High Efficiency Video Coding) - это новый стандарт кодирования видео.
- Стандарт H.265/HEVC является логическим продолжением стандарта H.264/AVC (Advanced Video Coding), и характеризуется более эффективными алгоритмами сжатия, а также поддержкой высокого разрешения вплоть до 8K UHD (8192x4320). Первая версия стандарта H.265 была опубликована в начале 2013 года.
- Рипы в фомате HEVC поддерживается не всеми аппаратными проигрывателями.
- Для корректного воспроизведения может потребоваться обновление ПО.
- Владельцам несовместимого железа просьба не беспокоить, есть альтернативные релизы.



[+] Медиаинфо
General
Unique ID                                : 215208827954336586704163320442892514186 (0xA1E7B66D4E474898A7A66D38646AF38A)
Complete name                            : d:HEVCDespicable Me 3 (2017)Despicable.Me.3.2017.1080p_HEVCCLUB.mkv
Format                                   : Matroska
Format version                           : Version 4 / Version 2
File size                                : 4.15 GiB
Duration                                 : 1 h 29 min
Overall bit rate                         : 6 629 kb/s
Movie name                               : Despicable Me 3 (2017) - HEVC.CLUB
Encoded date                             : UTC 2017-10-28 13:11:57
Writing application                      : mkvmerge v16.0.0 ('Protest') 64-bit
Writing library                          : libebml v1.3.5 + libmatroska v1.4.8
Cover                                    : Yes
Attachments                              : Cover.jpg

Video
ID                                       : 1
Format                                   : HEVC
Format/Info                              : High Efficiency Video Coding
Format profile                           : Main 10@L4.1@High
Codec ID                                 : V_MPEGH/ISO/HEVC
Duration                                 : 1 h 29 min
Bit rate                                 : 5 217 kb/s
Width                                    : 1 920 pixels
Height                                   : 804 pixels
Display aspect ratio                     : 2.40:1
Frame rate mode                          : Constant
Frame rate                               : 23.976 (24000/1001) FPS
Color space                              : YUV
Chroma subsampling                       : 4:2:0
Bit depth                                : 10 bits
Bits/(Pixel*Frame)                       : 0.141
Stream size                              : 3.27 GiB (79%)
Title                                    : HEVC.CLUB
Writing library                          : x265 2.5+17-f8ae7afc1f61:[Windows][GCC 6.2.1][64 bit] 10bit
Encoding settings                        : cpuid=1173503 / frame-threads=3 / numa-pools=8 / wpp / pmode / no-pme / no-psnr / ssim / log-level=2 / input-csp=1 / input-res=1920x804 / interlace=0 / total-frames=0 / level-idc=41 / high-tier=1 / uhd-bd=0 / ref=6 / no-allow-non-conformance / repeat-headers / annexb / aud / hrd / info / hash=0 / no-temporal-layers / open-gop / min-keyint=23 / keyint=250 / bframes=10 / b-adapt=2 / b-pyramid / bframe-bias=0 / rc-lookahead=60 / lookahead-slices=1 / scenecut=40 / no-intra-refresh / ctu=64 / min-cu-size=8 / no-rect / no-amp / max-tu-size=32 / tu-inter-depth=3 / tu-intra-depth=3 / limit-tu=0 / rdoq-level=1 / dynamic-rd=2.00 / no-ssim-rd / signhide / no-tskip / nr-intra=0 / nr-inter=0 / no-constrained-intra / no-strong-intra-smoothing / max-merge=2 / limit-refs=0 / no-limit-modes / me=1 / subme=7 / merange=64 / temporal-mvp / weightp / weightb / no-analyze-src-pics / deblock=-3:-3 / no-sao / no-sao-non-deblock / rd=4 / no-early-skip / no-rskip / no-fast-intra / no-tskip-fast / no-cu-lossless / no-b-intra / no-splitrd-skip / rdpenalty=0 / psy-rd=3.00 / psy-rdoq=2.00 / no-rd-refine / analysis-reuse-mode=0 / no-lossless / cbqpoffs=0 / crqpoffs=0 / rc=crf / crf=22.0 / qcomp=0.80 / qpstep=6 / stats-write=0 / stats-read=0 / vbv-maxrate=50000 / vbv-bufsize=50000 / vbv-init=0.9 / crf-max=0.0 / crf-min=0.0 / ipratio=1.50 / pbratio=1.00 / aq-mode=1 / aq-strength=0.50 / no-cutree / zone-count=0 / no-strict-cbr / qg-size=32 / no-rc-grain / qpmax=69 / qpmin=0 / no-const-vbv / sar=1 / overscan=0 / videoformat=5 / range=0 / colorprim=2 / transfer=2 / colormatrix=1 / chromaloc=0 / display-window=0 / max-cll=0,0 / min-luma=0 / max-luma=1023 / log2-max-poc-lsb=8 / vui-timing-info / vui-hrd-info / slices=1 / opt-qp-pps / opt-ref-list-length-pps / no-multi-pass-opt-rps / scenecut-bias=0.05 / no-opt-cu-delta-qp / aq-motion / no-hdr / no-hdr-opt / no-dhdr10-opt / analysis-reuse-level=5 / scale-factor=0 / refine-intra=0 / refine-inter=0 / refine-mv=0 / no-limit-sao / ctu-info=0
Default                                  : Yes
Forced                                   : Yes
Color range                              : Limited
Matrix coefficients                      : BT.709

Audio #1
ID                                       : 2
Format                                   : DTS
Format/Info                              : Digital Theater Systems
Mode                                     : 16
Format settings, Endianness              : Big
Codec ID                                 : A_DTS
Duration                                 : 1 h 29 min
Bit rate mode                            : Constant
Bit rate                                 : 768 kb/s
Channel(s)                               : 6 channels
Channel positions                        : Front: L C R, Side: L R, LFE
Sampling rate                            : 48.0 kHz
Frame rate                               : 93.750 FPS (512 SPF)
Bit depth                                : 24 bits
Compression mode                         : Lossy
Stream size                              : 493 MiB (12%)
Title                                    : Dub [License]
Language                                 : Russian
Default                                  : Yes
Forced                                   : No

Audio #2
ID                                       : 3
Format                                   : AC-3
Format/Info                              : Audio Coding 3
Format settings, Endianness              : Big
Codec ID                                 : A_AC3
Duration                                 : 1 h 29 min
Bit rate mode                            : Constant
Bit rate                                 : 640 kb/s
Channel(s)                               : 6 channels
Channel positions                        : Front: L C R, Side: L R, LFE
Sampling rate                            : 48.0 kHz
Frame rate                               : 31.250 FPS (1536 SPF)
Bit depth                                : 16 bits
Compression mode                         : Lossy
Stream size                              : 410 MiB (10%)
Title                                    : Original
Language                                 : English
Service kind                             : Complete Main
Default                                  : No
Forced                                   : No

Text #1
ID                                       : 4
Format                                   : UTF-8
Codec ID                                 : S_TEXT/UTF8
Codec ID/Info                            : UTF-8 Plain Text
Duration                                 : 1 h 10 min
Bit rate                                 : 1 b/s
Count of elements                        : 29
Stream size                              : 962 Bytes (0%)
Title                                    : Forced
Language                                 : Russian
Default                                  : Yes
Forced                                   : No

Text #2
ID                                       : 5
Format                                   : UTF-8
Codec ID                                 : S_TEXT/UTF8
Codec ID/Info                            : UTF-8 Plain Text
Duration                                 : 1 h 20 min
Bit rate                                 : 86 b/s
Count of elements                        : 1083
Stream size                              : 51.1 KiB (0%)
Title                                    : Full
Language                                 : Russian
Default                                  : No
Forced                                   : No

Text #3
ID                                       : 6
Format                                   : UTF-8
Codec ID                                 : S_TEXT/UTF8
Codec ID/Info                            : UTF-8 Plain Text
Duration                                 : 1 h 21 min
Bit rate                                 : 50 b/s
Count of elements                        : 1152
Stream size                              : 30.1 KiB (0%)
Title                                    : Full
Language                                 : English
Default                                  : No
Forced                                   : No

Text #4
ID                                       : 7
Format                                   : UTF-8
Codec ID                                 : S_TEXT/UTF8
Codec ID/Info                            : UTF-8 Plain Text
Duration                                 : 1 h 21 min
Bit rate                                 : 65 b/s
Count of elements                        : 1527
Stream size                              : 39.1 KiB (0%)
Title                                    : SDH
Language                                 : English
Default                                  : No
Forced                                   : No

Text #5
ID                                       : 8
Format                                   : UTF-8
Codec ID                                 : S_TEXT/UTF8
Codec ID/Info                            : UTF-8 Plain Text
Duration                                 : 1 h 21 min
Bit rate                                 : 108 b/s
Count of elements                        : 1527
Stream size                              : 64.7 KiB (0%)
Title                                    : SDH Colored
Language                                 : English
Default                                  : No
Forced                                   : No

Menu
00:00:00.000                             : en:00:00:00.000
00:03:06.103                             : en:00:03:06.103
00:07:57.977                             : en:00:07:57.977
00:11:12.839                             : en:00:11:12.839
00:16:15.766                             : en:00:16:15.766
00:20:07.498                             : en:00:20:07.498
00:24:07.988                             : en:00:24:07.988
00:28:57.069                             : en:00:28:57.069
00:32:55.348                             : en:00:32:55.348
00:39:01.839                             : en:00:39:01.839
00:42:44.187                             : en:00:42:44.187
00:46:47.179                             : en:00:46:47.179
00:50:55.636                             : en:00:50:55.636
00:56:12.077                             : en:00:56:12.077
01:00:02.265                             : en:01:00:02.265
01:05:41.229                             : en:01:05:41.229
01:10:14.544                             : en:01:10:14.544
01:14:33.761                             : en:01:14:33.761
01:19:29.723                             : en:01:19:29.723
01:21:56.995                             : en:01:21:56.995




Скриншоты:
[+] Всего файлов в раздаче - 1:
Despicable.Me.3.2017.1080p_HEVCCLUB.mkv4.15 GB

Текущая раздача:
ДатаКомментарии    РазмерПиры
2017-10-29 U Гадкий я 3 / Despicable Me 3 (2017) BDRip-HEVC 1080p от HEVC CLUB | Лицензия 4.15 GB ↑ 96 ↓ 35

Показать еще раздачи по запросу гадкий:
2017-11-01 U Гадкий я 3 / Despicable Me 3 (2017) HDRip от Scarabey | Лицензия 1.45 GB ↑ 127 ↓ 33
2017-10-31 U Гадкий я 3 / Despicable Me 3 (2017) BDRip-AVC от New-Team | Лицензия 761.60 MB ↑ 48 ↓ 9
2017-10-30 U Гадкий я 3 / Despicable Me 3 (2017) BDRip-AVC от New-Team | Лицензия 1.44 GB ↑ 68 ↓ 12
2017-10-29 U Гадкий я 3 / Despicable Me 3 (2017) BDRip-AVC от New-Team | Лицензия 2.10 GB ↑ 111 ↓ 26
2017-10-29 U Гадкий я 3 / Despicable Me 3 (2017) HDRip от MegaPeer | Лицензия 746.12 MB ↑ 169 ↓ 8
2017-10-28 U Гадкий я 3 / Despicable Me 3 (2017) BDRip 720p от HELLYWOOD | Лицензия 4.13 GB ↑ 82 ↓ 41
2017-10-28 U Гадкий я 3 / Despicable Me 3 (2017) BDRip-AVC от HELLYWOOD | Лицензия 1.46 GB ↑ 89 ↓ 20

Отзывы
Зарегистрируйтесь чтобы добавить комментарий.
Обратная связь
Copyleft ©