↑↓Torrent.by
Поиск
Логин: Регистрация
Пароль: Восстановить пароль
Загрузка...

Планетарианка: Звездный странник / Planetarian: Hoshi no Hito (2016) BDRip 720p | AniDub

Скачать planetarianka-zvezdnyy-strannik-planetarian-hoshi-no-hito-2016-bdrip-720p-anidub.torrent
U Магнитная ссылка Размер: 2.01 GB Раздают: 48 Качают: 8 Добавлен: 2017-10-30 06:47:15
Планетарианка: Звездный странник / Planetarian: Hoshi no Hito (2016) BDRip 720p | AniDub


Название: Планетарианка: Звездный странник
Оригинальное название: Planetarian: Hoshi no Hito
Год выхода: 2016
Жанр: приключения, фантастика, постапокалипсис, драма
Режиссер: Цуда Наокацу
О фильме:
Сюжет разворачивается в заброшенном городе, покинутом людьми 30 лет тому назад после биологической бомбардировки. С тех пор человечество находится на грани вымирания, а в руинах города обитают лишь автономные военные роботы.
Однажды, в поисках провизии в город забредает человек по имени Кудзуя. Во время своих поисков он натыкается на военных роботов, и они начинают погоню за ним. В спешке юноша находит укрытие в старом здании универмага, на крыше которого он обнаруживает планетарий. Здесь он сталкивается с девушкой по имени Юмэми Хосино. Она — андроид и член персонала планетария. Чтобы показать своему посетителю увлекательную программу, Юмэми просит Кудзую отремонтировать сломанный проектор. Тогда у него начинает просыпаться давно забытый интерес к звездам. И Кудзуя начинает задумываться о небе, полном звезд, и судьбе своей планеты.
Полнометражный фильм расскажет, что случилось с главным героем, Кудзуей, после событий, показанных в ONA-сериале и оригинальной визуальной новелле.

World Art | MAL

Страна: Япония
Студия: David Production
Продолжительность: 01:57:21
Язык: Русский, Японский
Перевод: Любительский (многоголосый, закадровый)

Файл
Качество: BDRip
Формат: MKV
Кодек: H.264
Аудио кодек: AAC
Видео: 1280x720, 23.976 fps, 2100 kbps
Аудио RUS: 48.0 kHz, AAC, 2 ch, 192 kbps - AniDub
Аудио JAP: 48.0 kHz, AAC, 2 ch, 192 kbps
Субтитры: русские (встроенные полный перевод, ASS) - Sovereign & DarkScorpio


[+] Озвучка
Релиз от:
Озвучивание: Студийная Банда AD
Тайминг и работа со звуком: NeSqUiK



[+] MediaInfo
General
Format : Matroska
Format version : Version 4 / Version 2
File size : 2.01 GiB
Duration : 1 h 57 min
Overall bit rate : 2 447 kb/s
Encoded date : UTC 2017-10-27 16:36:00
Writing application : mkvmerge v8.3.0 ('Over the Horizon') 64bit
Writing library : libebml v1.3.1 + libmatroska v1.4.2

Video
ID : 1
Format : AVC
Format/Info : Advanced Video Codec
Format profile : Main@L4.1
Format settings, CABAC : Yes
Format settings, ReFrames : 4 frames
Codec ID : V_MPEG4/ISO/AVC
Duration : 1 h 56 min
Bit rate : 2 126 kb/s
Width : 1 280 pixels
Height : 720 pixels
Display aspect ratio : 16:9
Frame rate mode : Constant
Frame rate : 23.976 (24000/1001) FPS
Color space : YUV
Chroma subsampling : 4:2:0
Bit depth : 8 bits
Scan type : Progressive
Bits/(Pixel*Frame) : 0.096
Stream size : 1.74 GiB (87%)
Writing library : x264 core 148 r2762 90a61ec
Encoding settings : cabac=1 / ref=3 / deblock=1:0:0 / analyse=0x1:0x131 / me=umh / subme=9 / psy=1 / psy_rd=1.00:0.00 / mixed_ref=1 / me_range=32 / chroma_me=1 / trellis=1 / 8x8dct=0 / cqm=0 / deadzone=21,11 / fast_pskip=1 / chroma_qp_offset=-2 / threads=12 / lookahead_threads=1 / sliced_threads=0 / nr=0 / decimate=1 / interlaced=0 / bluray_compat=0 / constrained_intra=0 / bframes=3 / b_pyramid=2 / b_adapt=1 / b_bias=0 / direct=1 / weightb=1 / open_gop=0 / weightp=2 / keyint=240 / keyint_min=1 / scenecut=40 / intra_refresh=0 / rc_lookahead=40 / rc=crf / mbtree=1 / crf=17.0 / qcomp=0.60 / qpmin=0 / qpmax=69 / qpstep=4 / ip_ratio=1.40 / aq=1:1.00
Default : Yes
Forced : No

Audio #1
ID : 2
Format : AAC
Format/Info : Advanced Audio Codec
Format profile : LC
Codec ID : A_AAC
Duration : 1 h 57 min
Bit rate : 132 kb/s
Channel(s) : 2 channels
Channel positions : Front: L R
Sampling rate : 48.0 kHz
Frame rate : 46.875 FPS (1024 spf)
Compression mode : Lossy
Stream size : 110 MiB (5%)
Title : AniDub
Language : Russian
Default : Yes
Forced : No

Audio #2
ID : 3
Format : AAC
Format/Info : Advanced Audio Codec
Format profile : LC
Codec ID : A_AAC
Duration : 1 h 56 min
Bit rate : 196 kb/s
Channel(s) : 2 channels
Channel positions : Front: L R
Sampling rate : 48.0 kHz
Frame rate : 46.875 FPS (1024 spf)
Compression mode : Lossy
Stream size : 164 MiB (8%)
Title : Original
Language : Japanese
Default : No
Forced : No

Text
ID : 4
Format : ASS
Codec ID : S_TEXT/ASS
Codec ID/Info : Advanced Sub Station Alpha
Duration : 1 h 56 min
Bit rate : 179 b/s
Count of elements : 1698
Compression mode : Lossless
Stream size : 154 KiB (0%)
Title : Полные субтитры
Language : Russian
Default : Yes
Forced : No



Скриншоты:
[+] Всего файлов в раздаче - 1:
Planetarian Hoshi no Hito.mkv2.01 GB

Отзывы
Зарегистрируйтесь чтобы добавить комментарий.
Обратная связь
Copyleft ©