↑↓Torrent.by
Поиск
Логин: Регистрация
Пароль: Восстановить пароль
Загрузка...

Гадкий я 3 / Despicable Me 3 (2017) BDRip-AVC от New-Team | Лицензия

Скачать gadkiy-ya-3-despicable-me-2017-bdrip-avc-ot-new-team-licenziya.torrent
U Магнитная ссылка Размер: 761.60 MB Раздают: 48 Качают: 9 Добавлен: 2017-10-31 17:03:08
Гадкий я 3 / Despicable Me 3 (2017) BDRip-AVC от New-Team | Лицензия

Гадкий я 3
Despicable Me 3

«Такие разные близнецы»

Страна: США
Жанр:  мультфильм, фантастика, боевик, комедия, приключения, семейный
Год выпуска: 2017
Продолжительность: 01:29:40
Перевод: Профессиональный (полное дублирование) [Blu-ray EUR]
Субтитры: русские (форсированные, полные)
Оригинальная аудиодорожка: нет
Режиссер: Эрик Гуильон / Eric Guillon, Кайл Балда / Kyle Balda, Пьер Коффан / Pierre Coffin

В ролях: Стив Карелл, Кристен Уиг, Трей Паркер, Миранда Косгров, Дэна Гайер, Нев Шаррел, Пьер Коффан, Стив Куган, Джули Эндрюс, Дженни Слейт, Майкл Битти, Энди Найман

Описание:
Грядет третье пришествие. Многодетный суперагент, роковая красотка и бессмертные миньоны на подходе. Готовьтесь. Они будут править миром.

Релиз:

Автор рипа: stalkerok

Семпл

Качество видео: BDRip-AVC [DESPICABLE_ME3_BLUEBIRD]
Формат видео: MKV
Видео кодек: AVC
Аудио кодек: AAC
Видео: 1123 Кбит/сек, 788*330 (2,40:1), в 23,976 (24000/1001) кадра/сек, AVC
Аудио: русский, 62,0 Кбит/сек, 48,0 КГц / 24,0 КГц, 2 канала, AAC (HE-AAC / LC)
Навигация по главам: есть


[+] x264/MediaInfo


x264 [info]: frame I:1021  Avg QP:17.55  size: 40705
x264 [info]: frame P:30180 Avg QP:19.75  size: 11546
x264 [info]: frame B:97807 Avg QP:22.56  size:  3738

Общее
Уникальный идентификатор                 : 250298895523060615461536445440214280548 (0xBC4DD054C52F8E64BBC26780D6CDA964)
Полное имя                               : M:!Rips2017Despicable Me 3Despicable.Me.3.2017.BDRip-AVC.RUS..stalkerok.new-team.mkv
Формат                                   : Matroska
Версия формата                           : Version 4 / Version 2
Размер файла                             : 762 Мбайт
Продолжительность                        : 1 ч. 29 м.
Общий поток                              : 1187 Кбит/сек
Название фильма                          : Despicable Me 3 (2017) (Rip by stalkerok)
Дата кодирования                         : UTC 2017-10-28 18:33:01
Программа кодирования                    : mkvmerge v8.6.1 ('Flying') 64bit
Библиотека кодирования                   : libebml v1.3.3 + libmatroska v1.4.4

Видео
Идентификатор                            : 1
Формат                                   : AVC
Формат/Информация                        : Advanced Video Codec
Профиль формата                          : High@L4.1
Параметр CABAC формата                   : Да
Параметр ReFrames формата                : 16 кадров
Идентификатор кодека                     : V_MPEG4/ISO/AVC
Продолжительность                        : 1 ч. 29 м.
Битрейт                                  : 1123 Кбит/сек
Ширина                                   : 788 пикселей
Высота                                   : 330 пикселей
Соотношение сторон                       : 2,40:1
Режим частоты кадров                     : Постоянный
Частота кадров                           : 23,976 (24000/1001) кадра/сек
Цветовое пространство                    : YUV
Субдискретизация насыщенности            : 4:2:0
Битовая глубина                          : 8 бит
Тип развёртки                            : Прогрессивная
Бит/(Пиксели*Кадры)                      : 0.180
Размер потока                            : 721 Мбайт (95%)
Заголовок                                : Despicable Me 3 (2017) (Rip by stalkerok)
Библиотека кодирования                   : x264 core 150 r2833kMod df79067
Настройки программы                      : cabac=1 / ref=16 / deblock=1:-3:-2 / analyse=0x3:0x133 / me=umh / subme=11 / psy=1 / fade_compensate=0.00 / psy_rd=1.00:0.00 / mixed_ref=1 / me_range=32 / chroma_me=1 / trellis=2 / 8x8dct=1 / cqm=0 / deadzone=21,11 / fast_pskip=0 / chroma_qp_offset=-2 / threads=10 / lookahead_threads=2 / sliced_threads=0 / nr=0 / decimate=1 / interlaced=0 / bluray_compat=0 / constrained_intra=0 / bframes=16 / b_pyramid=2 / b_adapt=2 / b_bias=0 / direct=3 / weightb=1 / open_gop=0 / weightp=2 / keyint=240 / keyint_min=23 / scenecut=40 / intra_refresh=0 / rc_lookahead=60 / rc=crf / mbtree=0 / crf=18.7000 / qcomp=0.65 / qpmin=0 / qpmax=69 / qpstep=4 / vbv_maxrate=50000 / vbv_bufsize=62500 / crf_max=0.0 / nal_hrd=none / filler=0 / ip_ratio=1.40 / pb_ratio=1.30 / aq=3:0.90
Default                                  : Да
Forced                                   : Нет

Аудио
Идентификатор                            : 2
Формат                                   : AAC
Формат/Информация                        : Advanced Audio Codec
Профиль формата                          : HE-AAC / LC
Идентификатор кодека                     : A_AAC
Продолжительность                        : 1 ч. 29 м.
Битрейт                                  : 62,0 Кбит/сек
Каналы                                   : 2 канала
Расположение каналов                     : Front: L R
Частота                                  : 48,0 КГц / 24,0 КГц
Частота кадров                           : 23,438 кадра/сек (1024 spf)
Метод сжатия                             : С потерями
Задержка видео                           : 31 мс.
Размер потока                            : 39,8 Мбайт (5%)
Язык                                     : Russian
Default                                  : Да
Forced                                   : Нет

Текст #1
Идентификатор                            : 3
Формат                                   : UTF-8
Идентификатор кодека                     : S_TEXT/UTF8
Идентификатор кодека/Информация          : UTF-8 Plain Text
Продолжительность                        : 1 ч. 27 м.
Битрейт                                  : 1 бит/сек
Count of elements                        : 30
Размер потока                            : 969 байт (0%)
Заголовок                                : forced
Язык                                     : Russian
Default                                  : Да
Forced                                   : Нет

Текст #2
Идентификатор                            : 4
Формат                                   : UTF-8
Идентификатор кодека                     : S_TEXT/UTF8
Идентификатор кодека/Информация          : UTF-8 Plain Text
Продолжительность                        : 1 ч. 28 м.
Битрейт                                  : 78 бит/сек
Count of elements                        : 1084
Размер потока                            : 51,3 Кбайт (0%)
Язык                                     : Russian
Default                                  : Нет
Forced                                   : Нет

Меню
00:00:00.000                             : en:Chapter 1
00:03:06.102                             : en:Chapter 2
00:07:57.976                             : en:Chapter 3
00:11:12.837                             : en:Chapter 4
00:16:15.765                             : en:Chapter 5
00:20:07.497                             : en:Chapter 6
00:24:07.988                             : en:Chapter 7
00:28:57.067                             : en:Chapter 8
00:32:55.347                             : en:Chapter 9
00:39:01.838                             : en:Chapter 10
00:42:44.186                             : en:Chapter 11
00:46:47.179                             : en:Chapter 12
00:50:55.635                             : en:Chapter 13
00:56:12.077                             : en:Chapter 14
01:00:02.264                             : en:Chapter 15
01:05:41.228                             : en:Chapter 16
01:10:14.542                             : en:Chapter 17
01:14:33.760                             : en:Chapter 18
01:19:29.722                             : en:Chapter 19
01:21:56.994                             : en:Chapter 20




Скриншоты:
[+] Всего файлов в раздаче - 1:
Despicable.Me.3.2017.BDRip-AVC.RUS..stalkerok.new-team.mkv761.60 MB

Текущая раздача:
ДатаКомментарии    РазмерПиры
2017-10-31 U Гадкий я 3 / Despicable Me 3 (2017) BDRip-AVC от New-Team | Лицензия 761.60 MB ↑ 48 ↓ 9

Показать еще раздачи по запросу гадкий:
2017-11-01 U Гадкий я 3 / Despicable Me 3 (2017) HDRip от Scarabey | Лицензия 1.45 GB ↑ 126 ↓ 33
2017-10-30 U Гадкий я 3 / Despicable Me 3 (2017) BDRip-AVC от New-Team | Лицензия 1.44 GB ↑ 67 ↓ 12
2017-10-29 U Гадкий я 3 / Despicable Me 3 (2017) BDRip-AVC от New-Team | Лицензия 2.10 GB ↑ 111 ↓ 26
2017-10-29 U Гадкий я 3 / Despicable Me 3 (2017) HDRip от MegaPeer | Лицензия 746.12 MB ↑ 169 ↓ 8
2017-10-29 U Гадкий я 3 / Despicable Me 3 (2017) BDRip-HEVC 1080p от HEVC CLUB | Лицензия 4.15 GB ↑ 97 ↓ 35
2017-10-28 U Гадкий я 3 / Despicable Me 3 (2017) BDRip 720p от HELLYWOOD | Лицензия 4.13 GB ↑ 81 ↓ 41
2017-10-28 U Гадкий я 3 / Despicable Me 3 (2017) BDRip-AVC от HELLYWOOD | Лицензия 1.46 GB ↑ 89 ↓ 20

Отзывы
Зарегистрируйтесь чтобы добавить комментарий.
Обратная связь
Copyleft ©