↑↓torrent.by
Поиск
Логин: Регистрация
Пароль: Восстановить пароль

Беги, прячься, бей / Run Hide Fight (2020) BDRip-AVC от ExKinoRay | iTunes

Скачать begi-pryachsya-bey-run-hide-fight-2020-bdrip-avc-ot-exkinoray-itunes.torrent
U Магнитная ссылка Размер: 742.80 MB Раздают: 20 Качают: 4 Добавлен: 2021-08-02 08:08:41
Беги, прячься, бей / Run Hide Fight (2020) BDRip-AVC от ExKinoRay | iTunes

Название: Беги, прячься, бей
Оригинальное название: Run Hide Fight
Год выхода: 2020
Жанр:  Боевик, триллер
Режиссер: Кайл Ранкин
В ролях: Изабель Мэй, Томас Джейн, Рада Митчелл, Эли Браун, Олли Шолотан, Трит Уильямс, Барбара Крэмптон, Кайрус Арнольд, Брайттон Сир, Кэтрин Дэвис, Джоэл Майкли, Шелби Майес, Мэри Диз, Сахара Эл, Тори Кэреу, Дэвид Докобо, Десараэ Эй Дотсон, Ханна Гленн, Себастьян Конарски, Эйприл Маккалоу, Джекки Тин, Том Уильямсон, СиДжей Льюис, Синди Вела, Брайан Мэсси

О фильме:
17-летняя Зои оказывается в школе, захваченной школьниками террористами, которые заставляют заложников вести онлайн трансляцию проиcходящего. Зои использует свой ум и навыки выживания, чтобы бороться за свою жизнь и жизнь своих одноклассников против группы школьных стрелков, которые все транслируют в прямом эфире. Вопреки принятому протоколу, девушка решает дать жесткий отпор террористам и сделать все, чтобы запомнили её, а не школьных стрелков. Началось все с того, что девушка пришла в школу, а кончилось настоящей войной...

Страна: США
Студия: Bonfire Legend, Media Finance Capital
Продолжительность: 01:49:27
Перевод: Дублированный | iTunes

Файл
Формат: MKV
Качество: BDRip-AVC
Видео: MPEG-4 AVC, 764x320, 875 Кбит/с
Аудио:  AAC-HE, 2 ch, 76 Кбит/с
Субтитры: Русские (Full)


[+] MI
Общее
Уникальный идентификатор : 136451324237689468564891731439349815649 (0x66A791B2820BC443288D8614DB4E5961)
Полное имя : D:MOVIESRun.Hide.Fight.2020.BDRip-AVC.ExKinoRay.mkv
Формат : Matroska
Версия формата : Version 4
Размер файла : 743 Мбайт
Продолжительность : 1 ч. 49 м.
Общий поток : 949 Кбит/сек
Дата кодирования : UTC 2021-08-02 04:03:08
Программа кодирования : mkvmerge v48.0.0 ('Fortress Around Your Heart') 64-bit
Библиотека кодирования : libebml v1.4.0 + libmatroska v1.6.0

Видео
Идентификатор : 1
Формат : AVC
Формат/Информация : Advanced Video Codec
Профиль формата : High@L4.1
Настройки формата : CABAC / 12 Ref Frames
Параметр CABAC формата : Да
Параметр RefFrames формата : 12 кадров
Идентификатор кодека : V_MPEG4/ISO/AVC
Продолжительность : 1 ч. 49 м.
Битрейт : 875 Кбит/сек
Ширина : 764 пикселя
Высота : 320 пикселей
Соотношение сторон : 2,40:1
Режим частоты кадров : Постоянный
Частота кадров : 23,976 (24000/1001) кадра/сек
Цветовое пространство : YUV
Субдискретизация насыщенности : 4:2:0
Битовая глубина : 8 бит
Тип развёртки : Прогрессивная
Бит/(Пиксели*Кадры) : 0.149
Размер потока : 682 Мбайт (92%)
Библиотека кодирования : x264 core 161 r3053 c347e7a
Настройки программы : cabac=1 / ref=12 / deblock=1:-2:-2 / analyse=0x3:0x133 / me=umh / subme=10 / psy=1 / psy_rd=1.05:0.12 / mixed_ref=1 / me_range=32 / chroma_me=1 / trellis=2 / 8x8dct=1 / cqm=0 / deadzone=21,11 / fast_pskip=0 / chroma_qp_offset=-3 / threads=6 / lookahead_threads=1 / sliced_threads=0 / nr=0 / decimate=0 / interlaced=0 / bluray_compat=0 / constrained_intra=0 / bframes=11 / b_pyramid=2 / b_adapt=2 / b_bias=0 / direct=3 / weightb=1 / open_gop=0 / weightp=2 / keyint=240 / keyint_min=23 / scenecut=40 / intra_refresh=0 / rc=2pass / mbtree=0 / bitrate=875 / ratetol=1.0 / qcomp=0.60 / qpmin=0 / qpmax=69 / qpstep=4 / cplxblur=20.0 / qblur=0.5 / ip_ratio=1.40 / pb_ratio=1.30 / aq=3:1.00
Язык : English
Default : Да
Forced : Нет
Цветовой диапазон : Limited
Основные цвета : BT.709
Характеристики трансфера : BT.709
Коэффициенты матрицы : BT.709

Аудио
Идентификатор : 2
Формат : AAC LC SBR
Формат/Информация : Advanced Audio Codec Low Complexity with Spectral Band Replication
Коммерческое название : HE-AAC
Настройки формата : Explicit
Идентификатор кодека : A_AAC-2
Продолжительность : 1 ч. 49 м.
Битрейт : 76,0 Кбит/сек
Каналы : 2 канала
Channel layout : L R
Частота : 48,0 КГц
Частота кадров : 23,438 кадра/сек (2048 SPF)
Метод сжатия : С потерями
Задержка видео : 31 мс.
Размер потока : 59,5 Мбайт (8%)
Язык : Russian
Default : Да
Forced : Нет

Текст
Идентификатор : 3
Формат : UTF-8
Идентификатор кодека : S_TEXT/UTF8
Идентификатор кодека/Информация : UTF-8 Plain Text
Продолжительность : 1 ч. 41 м.
Битрейт : 99 бит/сек
Count of elements : 1435
Размер потока : 74,3 Кбайт (0%)
Заголовок : Full [FOCS]
Язык : Russian
Default : Нет
Forced : Нет

Меню
00:00:00.000 : Глава 01
00:16:51.636 : Глава 02
00:36:58.049 : Глава 03
00:54:51.788 : Глава 04
01:14:09.695 : Глава 05
01:31:16.262 : Глава 06




[+] Скрытый текст
На время 00:48:32 можно лицезреть кривое оружие (из картона или пластилина).



Скриншоты:
[+] Всего файлов в раздаче - 1:

Похожие раздачи по запросу - беги:
2021-09-15 U Беги, дева, беги / Die Jungfrauen von Bumshausen / Run, Virgin, Run (1969) WEBRip 1080p | А 5.18 GB ↑ 29 ↓ 9
2021-08-01 U Беги, прячься, бей / Run Hide Fight (2020) BDRip от MegaPeer | iTunes 1.46 GB ↑ 164 ↓ 10

Отзывы
Зарегистрируйтесь чтобы добавить комментарий.
Загрузите программу
  byTorrent
Обратная связь
Copyleft ©