↑↓Torrent.by
Поиск
Логин: Регистрация
Пароль: Восстановить пароль
Загрузка...

Не твоё тело / Moglie e marito (2017) BDRip 1080p | iTunes

Скачать ne-tvoe-telo-moglie-e-marito-2017-bdrip-1080p-itunes.torrent
U Магнитная ссылка Размер: 7.15 GB Раздают: 137 Качают: 108 Добавлен: 2017-11-03 21:19:51
Не твоё тело / Moglie e marito (2017) BDRip 1080p | iTunes

Название: Не твоё тело
Оригинальное название: Moglie e marito
Год выхода: 2017
Жанр: Комедия

Режиссер: Симоне Годано

В ролях: Касия Смутняк, Пьерфранческо Фавино, Марта Гастини, Андреа Бруски, Франческа Агостини, Валерио Эпри, Гаэтано Бруно, Флавио Фурно

О фильме:
Что, если однажды вы поменяетесь телами с вашей второй половинкой? Об этом даже не задумывались Андреа и София. Если бы не один эксперимент, в результате которого пара обнаруживает, что они оказались внутри друг друга. Буквально! Теперь София — блестящий доктор, а Андреа — привлекательная телеведущая на подъеме своей карьеры. Им предстоит не только смириться со своим новым телом, но и примерить на себя все привычки и знания друг друга… Ей проводить тяжелейшие операции, ему освоить журналистскую профессию со всеми вытекающими последствиями.

Страна: Италия
Продолжительность: 01:45:34
Перевод: Профессиональный (полное дублирование) | iTunes

Файл
Кодек: x.264
Качество: BDRip 1080p
Видео: AVC, 1920x808 (2.40:1), 23.976 fps, 7 800 Kbps
Звук 1: AC-3, 48.0 KHz, 6 ch, 384 Kbps, CBR (Russian)
Звук 2: DTS, 48.0 KHz, 6 ch, 1 509 Kbps, CBR (Italian)
Субтитры: English, Italian


[+] MI
Общее
Уникальный идентификатор                 : 174517141037833063212962727630625505146 (0x834AC75DB0E5E08AA76AB843F812FF7A)
Полное имя                               : Moglie.E.Marito.2017.D.BDRip.1080p.mkv
Формат                                   : Matroska
Версия формата                           : Version 4 / Version 2
Размер файла                             : 7,15 Гбайт
Продолжительность                        : 1 ч. 45 м.
Режим общего битрейта                    : Переменный
Общий поток                              : 9691 Кбит/сек
Дата кодирования                         : UTC 2017-11-03 09:50:37
Программа кодирования                    : mkvmerge v8.3.0 ('Over the Horizon') 64bit
Библиотека кодирования                   : libebml v1.3.1 + libmatroska v1.4.2

Видео
Идентификатор                            : 1
Формат                                   : AVC
Формат/Информация                        : Advanced Video Codec
Профиль формата                          : High@L4.1
Параметр CABAC формата                   : Да
Параметр ReFrames формата                : 5 кадров
Идентификатор кодека                     : V_MPEG4/ISO/AVC
Продолжительность                        : 1 ч. 45 м.
Вид битрейта                             : Переменный
Битрейт                                  : 7800 Кбит/сек
Максимальный битрейт                     : 62,5 Мбит/сек
Ширина                                   : 1920 пикселей
Высота                                   : 808 пикселей
Соотношение сторон                       : 2,40:1
Режим частоты кадров                     : Постоянный
Частота кадров                           : 23,976 (24000/1001) кадра/сек
Цветовое пространство                    : YUV
Субдискретизация насыщенности            : 4:2:0
Битовая глубина                          : 8 бит
Тип развёртки                            : Прогрессивная
Бит/(Пиксели*Кадры)                      : 0.210
Размер потока                            : 5,75 Гбайт (80%)
Библиотека кодирования                   : x264 core 152 r2851 ba24899
Настройки программы                      : cabac=1 / ref=5 / deblock=1:0:0 / analyse=0x3:0x113 / me=hex / subme=8 / psy=1 / psy_rd=1.00:0.00 / mixed_ref=1 / me_range=16 / chroma_me=1 / trellis=2 / 8x8dct=1 / cqm=0 / deadzone=21,11 / fast_pskip=1 / chroma_qp_offset=-2 / threads=12 / lookahead_threads=2 / sliced_threads=0 / nr=0 / decimate=1 / interlaced=0 / bluray_compat=0 / constrained_intra=0 / bframes=3 / b_pyramid=0 / b_adapt=1 / b_bias=0 / direct=3 / weightb=1 / open_gop=0 / weightp=2 / keyint=240 / keyint_min=24 / scenecut=40 / intra_refresh=0 / rc_lookahead=50 / rc=2pass / mbtree=1 / bitrate=7800 / ratetol=1.0 / qcomp=0.60 / qpmin=0 / qpmax=69 / qpstep=4 / cplxblur=20.0 / qblur=0.5 / vbv_maxrate=62500 / vbv_bufsize=62500 / nal_hrd=vbr / filler=0 / ip_ratio=1.40 / aq=1:1.00
Default                                  : Да
Forced                                   : Нет

Аудио #1
Идентификатор                            : 2
Формат                                   : AC-3
Формат/Информация                        : Audio Coding 3
Параметр Endianness формата              : Big
Идентификатор кодека                     : A_AC3
Продолжительность                        : 1 ч. 45 м.
Вид битрейта                             : Постоянный
Битрейт                                  : 384 Кбит/сек
Каналы                                   : 6 каналов
Расположение каналов                     : Front: L C R, Side: L R, LFE
Частота                                  : 48,0 КГц
Частота кадров                           : 31,250 кадров/сек (1536 spf)
Битовая глубина                          : 16 бит
Метод сжатия                             : С потерями
Размер потока                            : 290 Мбайт (4%)
Заголовок                                : iTunes
Язык                                     : Russian
Default                                  : Да
Forced                                   : Нет

Аудио #2
Идентификатор                            : 3
Формат                                   : DTS
Формат/Информация                        : Digital Theater Systems
Режим                                    : 16
Параметр Endianness формата              : Big
Идентификатор кодека                     : A_DTS
Продолжительность                        : 1 ч. 45 м.
Вид битрейта                             : Постоянный
Битрейт                                  : 1509 Кбит/сек
Каналы                                   : 6 каналов
Расположение каналов                     : Front: L C R, Side: L R, LFE
Частота                                  : 48,0 КГц
Частота кадров                           : 93,750 кадра/сек (512 spf)
Битовая глубина                          : 16 бит
Метод сжатия                             : С потерями
Размер потока                            : 1,11 Гбайт (16%)
Язык                                     : Italian
Default                                  : Нет
Forced                                   : Нет

Текст #1
Идентификатор                            : 4
Формат                                   : UTF-8
Идентификатор кодека                     : S_TEXT/UTF8
Идентификатор кодека/Информация          : UTF-8 Plain Text
Продолжительность                        : 1 ч. 39 м.
Битрейт                                  : 72 бит/сек
ElementCount                             : 1500
Размер потока                            : 53,2 Кбайт (0%)
Язык                                     : English
Default                                  : Да
Forced                                   : Нет

Текст #2
Идентификатор                            : 5
Формат                                   : UTF-8
Идентификатор кодека                     : S_TEXT/UTF8
Идентификатор кодека/Информация          : UTF-8 Plain Text
Продолжительность                        : 1 ч. 39 м.
Битрейт                                  : 70 бит/сек
ElementCount                             : 1315
Размер потока                            : 51,6 Кбайт (0%)
Язык                                     : Italian
Default                                  : Нет
Forced                                   : Нет

Меню
00:00:00.000                             : en:00:00:00.000
00:12:46.182                             : en:00:12:46.182
00:18:20.057                             : en:00:18:20.057
00:25:27.484                             : en:00:25:27.484
00:30:08.765                             : en:00:30:08.765
00:42:34.510                             : en:00:42:34.510
00:50:36.659                             : en:00:50:36.659
01:02:10.268                             : en:01:02:10.268
01:14:04.523                             : en:01:14:04.523
01:19:02.696                             : en:01:19:02.696
01:26:01.114                             : en:01:26:01.114
01:31:18.431                             : en:01:31:18.431



Скриншоты:
[+] Всего файлов в раздаче - 1:
Moglie.E.Marito.2017.D.BDRip.1080p.mkv7.15 GB

Текущая раздача:
ДатаКомментарии    РазмерПиры
2017-11-03 U Не твоё тело / Moglie e marito (2017) BDRip 1080p | iTunes 7.15 GB ↑ 137 ↓ 108

Показать еще раздачи по запросу тело:
2017-11-02 U Не твоё тело / Moglie e marito (2017) HDRip от MegaPeer | iTunes 745.66 MB ↑ 108 ↓ 54
2017-11-02 U Не твоё тело / Moglie e marito (2017) HDRip от MegaPeer | iTunes 1.46 GB ↑ 252 ↓ 111
2017-11-02 U Не твоё тело / Moglie e marito (2017) WEB-DL 1080p | iTunes 3.62 GB ↑ 161 ↓ 117
2017-10-23 U Как работает тело человека (2016) PDF 41.16 MB ↑ 93 ↓ 13
2017-10-08 U Не твоё тело / Moglie e marito (2017) DVDRip | L 1.34 GB ↑ 182 ↓ 123
2016-10-21 U Тело / Body/Ciało / Cialo (2015) DVDRip | L1 1.36 GB ↑ 188 ↓ 8
2016-08-12 U Тело / Body (2015) HDRip | L1 1.36 GB ↑ 134 ↓ 71

Отзывы
Зарегистрируйтесь чтобы добавить комментарий.
Обратная связь
Copyleft ©