↑↓Torrent.by
Поиск
Логин: Регистрация
Пароль: Восстановить пароль
Загрузка...

Сын другой матери / Another Mother's Son (2017) DVDRip | L2

Скачать syn-drugoy-materi-another-mother-s-son-2017-dvdrip-l2.torrent
U Магнитная ссылка Размер: 1.28 GB Раздают: 359 Качают: 129 Добавлен: 2017-11-04 15:02:45
Сын другой матери / Another Mother's Son (2017) DVDRip | L2

Название: Сын другой матери
Оригинальное название: Another Mother's Son
Год выхода: 2017
Жанр: Драма
Режиссер: Кристофер Менол
В ролях: Дженни Сигроув, Джон Хана, Джулиан Костов, Аманда Аббингтон, Ронан Китинг, Фелисите Ду Жю, Сьюзен Хэмпшир, Брэнок О’Коннор, Питер Уайт, Гвен Тейлор ...
О фильме:
Драма, основанная на реальной истории Луизы Гулд, разворачивается во время Второй Мировой войны на оккупированном нацистами острове Джерси. Лу прячет у себя сбежавшего русского военнопленного. Напряжение нарастает, так как общий дух падает под давлением голода, оккупации и предательств. Несмотря на это, Лу борится за то, чтобы сохранить человечность, и относится к русскому парню как к родному сыну.

Страна: Великобритания
Продолжительность: 01:35:47
Перевод: Любительский (многоголосый закадровый) | RecentFilms

Файл
Кодек: XviD
Качество: DVDRip  
Видео: 720x304, 23,976 fps, ~1718 kbps, 0.33 bit/pixel
Звук:
Аудио rus: AC3, 48 kHz, 2 ch, 192 Kbps
Субтитры: отсутствуют
Реклама: присутствует

Релиз от: RecentFilms


[+] MediaInfo:

General
Complete name                            : C:UsersYuriyGoogle ДискAnother.Mothers.Son.2017.RecentFilms.avi
Format                                   : AVI
Format/Info                              : Audio Video Interleave
File size                                : 1.28 GiB
Duration                                 : 1h 35mn
Overall bit rate                         : 1 920 Kbps
Writing application                      : VirtualDubMod 1.5.10.2 (build 2540/release)
Writing library                          : VirtualDubMod build 2540/release

Video
ID                                       : 0
Format                                   : MPEG-4 Visual
Format profile                           : Advanced Simple@L5
Format settings, BVOP                    : 1
Format settings, QPel                    : No
Format settings, GMC                     : No warppoints
Format settings, Matrix                  : Default (H.263)
Codec ID                                 : XVID
Codec ID/Hint                            : XviD
Duration                                 : 1h 35mn
Bit rate                                 : 1 719 Kbps
Width                                    : 720 pixels
Height                                   : 304 pixels
Display aspect ratio                     : 2.35:1
Frame rate                               : 23.976 (24000/1001) fps
Color space                              : YUV
Chroma subsampling                       : 4:2:0
Bit depth                                : 8 bits
Scan type                                : Progressive
Compression mode                         : Lossy
Bits/(Pixel*Frame)                       : 0.328
Stream size                              : 1.15 GiB (90%)
Writing library                          : XviD 67

Audio
ID                                       : 1
Format                                   : AC-3
Format/Info                              : Audio Coding 3
Mode extension                           : CM (complete main)
Format settings, Endianness              : Big
Codec ID                                 : 2000
Duration                                 : 1h 35mn
Bit rate mode                            : Constant
Bit rate                                 : 192 Kbps
Channel(s)                               : 2 channels
Channel positions                        : Front: L R
Sampling rate                            : 48.0 KHz
Frame rate                               : 31.250 fps (1536 spf)
Compression mode                         : Lossy
Stream size                              : 132 MiB (10%)
Alignment                                : Split accross interleaves
Interleave, duration                     : 42 ms (1.00 video frame)
Interleave, preload duration             : 500 ms




Скриншоты:
[+] Всего файлов в раздаче - 1:
Another.Mothers.Son.2017.RecentFilms.avi1.28 GB

Текущая раздача:
ДатаКомментарии    РазмерПиры
2017-11-04 U Сын другой матери / Another Mother's Son (2017) DVDRip | L2 1.28 GB ↑ 359 ↓ 129

Показать еще раздачи по запросу другой:
2017-11-03 U Другой / Mark of the Witch / Another (2014) HDRip | L1 1.28 GB ↑ 119 ↓ 38
2017-04-16 U Другой мир: Войны крови / Underworld: Blood Wars (2016) BDRip-AVC от HELLYWOOD | Лицензия 1.46 GB ↑ 63 ↓ 4
2017-04-16 U Другой мир: Войны крови / Underworld: Blood Wars (2016) BDRip-AVC от HELLYWOOD | Лицензия 2.18 GB ↑ 205 ↓ 5
2017-03-29 U Другой мир: Войны крови / Underworld: Blood Wars (2016) BDRip 1080p от Ash61 | 3D-Video | halfOU 6.44 GB ↑ 61 ↓ 52
2017-03-29 U Другой мир: Войны крови / Underworld: Blood Wars (2016) HDRip от Scarabey | Лицензия 1.44 GB ↑ 599 ↓ 1
2017-03-29 U Другой мир: Войны крови / Underworld: Blood Wars (2016) BDRip-HEVC 1080p от TURG | Лицензия 3.76 GB ↑ 55 ↓ 14
2017-03-28 U Другой мир: Войны крови / Underworld: Blood Wars (2016) BDRip от ExKinoRay | Лицензия 1.46 GB ↑ 120 ↓ 12

Отзывы
Зарегистрируйтесь чтобы добавить комментарий.
Обратная связь
Copyleft ©