↑↓Torrent.by
Поиск
Логин: Регистрация
Пароль: Восстановить пароль
Загрузка...

Бесогон ТВ. Пернатые сенаторы [03.11] (2017) WEBRip

Скачать besogon-tv-pernatye-senatory-03-11-2017-webrip.torrent
U Магнитная ссылка Размер: 376.85 MB Раздают: 47 Качают: 15 Добавлен: 2017-11-05 08:13:48
Бесогон ТВ. Пернатые сенаторы [03.11] (2017) WEBRip

Название: Бесогон ТВ. Пернатые сенаторы
Год выхода: 2017
Жанр: Телепередача, общественно-политическая программа
Режиссер: Никита Михалков

О фильме:
Авторская Программа Никиты Михалкова Бесогон TV на канале Россия 24 выходит 1 или 2 раза в месяц.
Цель этого авторского канала, - поделится мыслями и опровергнуть домыслы появляющиеся в сети и не отражающие истинного мнения автора передачи, - Никиты Михалкова о том или ином событии.
Темы выпусков самые разные, но доминируют политика и общество.

Из выпуска Бесогон ТВ, Никита Михалков: «Олег Кашин назвал это "Экранизация страхов и иллюзий Кремля". Причем обратите внимание - все обвиняющие Быкова в том, что он снял безобразие, всё время приводят в пример ему его же два фильма "Дурак" и "Майор". То есть всё, что там, в этих остросоциальных фильмах рассказывалось и показывалось про нашу жизнь, несколько предвзятую, как мне кажется, жизнь - это устраивает нашу либеральную общественность.
Но стоило Быкову, я не знаю по каким причинам, что-то переосмыслить, вдруг возникло желание снять картину, в которой рассказать о людях, которые защищают страну, о ситуации, которая есть, что-то преувеличено, что-то так, что-то не так - это кино. Стоило только коснуться этого, как в зеркале, все те, кто поливает Быкова грязью, увидели своё отражение. И оно им очень не понравилось. Началась травля, обыкновенная травля...»

В выпуске: Юрий Быков и травля за сериал Спящие, Слава Тарощина, Олег Кашин, Марина Юденич, Сергей Лукьяненко, Виктор Шендерович, Лев Гумилев, Антон Чехов, Дина Сорокина и интервью Голосу Америки, Ельцин-центр

Страна: Россия
Студия: Россия 24, БесогонTV
Продолжительность: 00:42:41
Перевод: Не требуется

Файл
Кодек: h.264
Качество: WEBRip
Видео: AVC MPEG-4, 960x540 (16:9), ~1138 Kbps, 25 fps
Звук: AAC, 2 ch, 94 Kbps, 48 kHz
[+] MediaInfo


General
Unique ID                   : 252676158970844222903996086361605372297 (0xBE17A877E5691F86B95D4B8091957989)
Complete name               : D:FilmБесогон ТВ Пернатые сенаторы.mkv
Format                      : Matroska
Format version              : Version 4 / Version 2
File size                   : 377 MiB
Duration                    : 42 min 41 s
Overall bit rate mode       : Variable
Overall bit rate            : 1 234 kb/s
Encoded date                : UTC 2017-11-04 07:58:45
Writing application         : mkvmerge v17.0.0 ('Be Ur Friend') 64-bit
Writing library             : libebml v1.3.5 + libmatroska v1.4.8
Cover                       : Yes
Attachments                 : cover.png

Video
ID                          : 1
Format                      : AVC
Format/Info                 : Advanced Video Codec
Format profile              : Main@L3.1
Format settings             : CABAC / 2 Ref Frames
Format settings, CABAC      : Yes
Format settings, RefFrames  : 2 frames
Format settings, GOP        : M=3, N=60
Codec ID                    : V_MPEG4/ISO/AVC
Duration                    : 42 min 41 s
Bit rate mode               : Variable
Bit rate                    : 1 138 kb/s
Maximum bit rate            : 2 000 kb/s
Width                       : 960 pixels
Height                      : 540 pixels
Display aspect ratio        : 16:9
Frame rate mode             : Constant
Frame rate                  : 25.000 FPS
Color space                 : YUV
Chroma subsampling          : 4:2:0
Bit depth                   : 8 bits
Scan type                   : Progressive
Bits/(Pixel*Frame)          : 0.088
Stream size                 : 347 MiB (92%)
Language                    : Russian
Default                     : Yes
Forced                      : No

Audio
ID                          : 2
Format                      : AAC
Format/Info                 : Advanced Audio Codec
Format profile              : LC
Codec ID                    : A_AAC-2
Duration                    : 42 min 41 s
Bit rate                    : 93.5 kb/s
Channel(s)                  : 2 channels
Channel positions           : Front: L R
Sampling rate               : 48.0 kHz
Frame rate                  : 46.875 FPS (1024 SPF)
Compression mode            : Lossy
Delay relative to video     : -21 ms
Stream size                 : 28.5 MiB (8%)
Language                    : Russian
Default                     : Yes
Forced                      : No




Скриншоты:
[+] Всего файлов в раздаче - 1:
Бесогон ТВ Пернатые сенаторы.mkv376.85 MB

Текущая раздача:
ДатаКомментарии    РазмерПиры
2017-11-05 U Бесогон ТВ. Пернатые сенаторы [03.11] (2017) WEBRip 376.85 MB ↑ 47 ↓ 15

Похожие раздачи по запросу - бесогон:
2015-12-31 U Запрещенный к показу на телевидении выпуск Бесогон TV (2015) DVDRip 4К576.81 MB ↑ 507 ↓ 2

Отзывы
Зарегистрируйтесь чтобы добавить комментарий.
Обратная связь
Copyleft ©