↑↓Torrent.by
Поиск
Логин: Регистрация
Пароль: Восстановить пароль
Загрузка...

Тачки 3 / Cars 3 (2017) BDRemux 1080p от ExKinoRay | iTunes

Скачать tachki-3-cars-2017-bdremux-1080p-ot-exkinoray-itunes.torrent
U Магнитная ссылка Размер: 18.92 GB Раздают: 114 Качают: 93 Добавлен: 2017-11-05 16:17:24
Тачки 3 / Cars 3 (2017) BDRemux 1080p от ExKinoRay | iTunes

Название: Тачки 3
Оригинальное название: Cars 3
Год выхода: 2017
Жанр: Мультфильм, комедия, приключения, семейный, спорт, полнометражный
Режиссер: Джон Лассетер, Джо Рэнфт
В ролях: Оуэн Уилсон, Пол Ньюман, Бонни Хант, Ларри Кейбл Гай, Чич Марин, Тони Шэлоуб, Гуидо Куарони, Дженифер Льюис, Пол Дули, Майкл Уоллис

О фильме:
Герой все еще продолжает показывать лучшие результаты на всех турнирах, однако победы даются ему не так легко, а конкуренция становится все жестче. Молнию Маккуина ждут захватывающие приключения, где он встретит новых друзей, а также поймет, что не только скорость и мощность мотора делают гонщика чемпионом.

Страна: США
Студия: Walt Disney Pictures, Pixar Animation Studios
Продолжительность: 01:42:25
Перевод: Дублированный | iTunes

Файл
Качество: BDRemux 1080p
Видео: MPEG-4 AVC, 1920x1080, 21.6 Мbit/s, 23.976 fps
Звук:
Аудио #01: 48 kHz, AC3, 5.1, 384 Kbps | Дублированный | iTunes | RUS |
Аудио #02: 48 kHz, DTS-HD MA, 7.1, 4415 Kbps | Оригинал |  ENG |
Субтитры: Русские (full), английские

Релиз: Автор релиза:


[+] MI
General
Unique ID                   : 198628366495669923964626290156563826200 (0x956E6E8FF10786D88A988B1218BF8618)
Complete name               : G:VideoSSDCars.3.2017.BDREMUX.1080p.ExKinoRay.mkv
Format                      : Matroska
Format version              : Version 4 / Version 2
File size                   : 18.9 GiB
Duration                    : 1 h 42 min
Overall bit rate mode       : Variable
Overall bit rate            : 26.4 Mb/s
Movie name                  : Release by ExKinoRay
Encoded date                : UTC 2017-11-04 22:45:00
Writing application         : mkvmerge v17.0.0 ('Be Ur Friend') 64-bit
Writing library             : libebml v1.3.5 + libmatroska v1.4.8
Cover                       : Yes
Attachments                 : cover.jpg

Video
ID                          : 1
Format                      : AVC
Format/Info                 : Advanced Video Codec
Format profile              : High@L4.1
Format settings             : CABAC / 4 Ref Frames
Format settings, CABAC      : Yes
Format settings, RefFrames  : 4 frames
Format settings, GOP        : M=1, N=12
Codec ID                    : V_MPEG4/ISO/AVC
Duration                    : 1 h 42 min
Bit rate mode               : Variable
Bit rate                    : 21.6 Mb/s
Maximum bit rate            : 32.0 Mb/s
Width                       : 1 920 pixels
Height                      : 1 080 pixels
Display aspect ratio        : 16:9
Frame rate mode             : Constant
Frame rate                  : 23.976 (24000/1001) FPS
Color space                 : YUV
Chroma subsampling          : 4:2:0
Bit depth                   : 8 bits
Scan type                   : Progressive
Bits/(Pixel*Frame)          : 0.435
Stream size                 : 15.5 GiB (82%)
Language                    : English
Default                     : Yes
Forced                      : No

Audio #1
ID                          : 2
Format                      : AC-3
Format/Info                 : Audio Coding 3
Format settings, Endianness : Big
Codec ID                    : A_AC3
Duration                    : 1 h 42 min
Bit rate mode               : Constant
Bit rate                    : 384 kb/s
Channel(s)                  : 6 channels
Channel positions           : Front: L C R, Side: L R, LFE
Sampling rate               : 48.0 kHz
Frame rate                  : 31.250 FPS (1536 SPF)
Bit depth                   : 16 bits
Compression mode            : Lossy
Stream size                 : 281 MiB (1%)
Title                       : iTunes
Language                    : Russian
Service kind                : Complete Main
Default                     : Yes
Forced                      : No

Audio #2
ID                          : 3
Format                      : DTS
Format/Info                 : Digital Theater Systems
Format profile              : MA / Core
Mode                        : 16
Format settings, Endianness : Big
Codec ID                    : A_DTS
Duration                    : 1 h 42 min
Bit rate mode               : Variable / Constant
Bit rate                    : 4 415 kb/s / 1 509 kb/s
Channel(s)                  : 8 channels / 6 channels
Channel positions           : Front: L C R, Side: L R, Back: L R, LFE / Front: L C R, Side: L R, LFE
Sampling rate               : 48.0 kHz
Frame rate                  : 93.750 FPS (512 SPF)
Bit depth                   : 24 bits
Compression mode            : Lossless / Lossy
Stream size                 : 3.16 GiB (17%)
Title                       : Original
Language                    : English
Default                     : No
Forced                      : No

Text #1
ID                          : 4
Format                      : UTF-8
Codec ID                    : S_TEXT/UTF8
Codec ID/Info               : UTF-8 Plain Text
Duration                    : 1 h 40 min
Bit rate                    : 130 b/s
Count of elements           : 1420
Stream size                 : 96.6 KiB (0%)
Title                       : Full
Language                    : Russian
Default                     : No
Forced                      : No

Text #2
ID                          : 5
Format                      : UTF-8
Codec ID                    : S_TEXT/UTF8
Codec ID/Info               : UTF-8 Plain Text
Duration                    : 1 h 41 min
Bit rate                    : 86 b/s
Count of elements           : 2108
Stream size                 : 64.2 KiB (0%)
Language                    : English
Default                     : No
Forced                      : No

Menu
00:00:00.000                : en:Champ McQueen
00:04:57.255                : en:Storm Front
00:10:54.988                : en:Crash
00:13:59.422                : en:Wake-up Call
00:18:15.344                : en:Phone Call
00:21:07.641                : en:Modern Training
00:34:08.880                : en:Deal
00:37:52.103                : en:Beach
00:42:44.812                : en:Crazy Eight
00:49:44.398                : en:Cruz's Dream
00:53:57.734                : en:Facetime
00:58:17.702                : en:Olive Branch
00:59:27.522                : en:Smokey
01:02:15.940                : en:Hud's Win
01:06:35.533                : en:It's Over
01:08:33.109                : en:Old School Training
01:15:48.126                : en:Florida Arrival
01:20:57.852                : en:Pit Stop
01:29:42.418                : en:Victory Lane
01:32:17.031                : en:Epilogue
01:34:00.092                : en:End Credits



Скриншоты:
[+] Всего файлов в раздаче - 1:
Cars.3.2017.BDREMUX.1080p.ExKinoRay.mkv18.92 GB

Текущая раздача:
ДатаКомментарии    РазмерПиры
2017-11-05 U Тачки 3 / Cars 3 (2017) BDRemux 1080p от ExKinoRay | iTunes 18.92 GB ↑ 114 ↓ 93

Показать еще раздачи по запросу тачки:
2017-11-19 U Тачки 3 / Cars 3 (2017) BDRip от ExKinoRay | Лицензия 1.46 GB ↑ 132 ↓ 31
2017-11-19 U Тачки 3 / Cars 3 (2017) BDRip 1080p от New-Team & qqss44 | Лицензия 3К5.75 GB ↑ 94 ↓ 59
2017-11-18 U Тачки 3 / Cars 3 (2017) BDRip-AVC от HELLYWOOD | Лицензия 1.46 GB ↑ 55 ↓ 15
2017-11-18 U Тачки 3 / Cars 3 (2017) BDRip от MegaPeer | Лицензия 1.46 GB ↑ 64 ↓ 25
2017-11-18 U Тачки 3 / Cars 3 (2017) BDRip 1080p от OlLanDGroup | Лицензия 8.78 GB ↑ 80 ↓ 55
2017-11-18 U Тачки 3 / Cars 3 (2017) BDRip-AVC от HELLYWOOD | Лицензия 2.18 GB ↑ 196 ↓ 18
2017-11-10 U Тачки 3 / Cars 3 (2017) BDRip 1080p от Ash61 | 3D-Video | halfOU | iTunes 9.06 GB ↑ 44 ↓ 19

Отзывы
Зарегистрируйтесь чтобы добавить комментарий.
Обратная связь
Copyleft ©