↑↓Torrent.by
Поиск
Логин: Регистрация
Пароль: Восстановить пароль
Загрузка...

Тачки 3 / Cars 3 (2017) BDRip-AVC от OlLanDGroup | iTunes

Скачать tachki-3-cars-2017-bdrip-avc-ot-ollandgroup-itunes.torrent
U Магнитная ссылка Размер: 2.18 GB Раздают: 57 Качают: 6 Добавлен: 2017-11-06 06:44:04
Тачки 3 / Cars 3 (2017) BDRip-AVC от OlLanDGroup | iTunes

Тачки 3 / Cars 3
«Гонка продолжается, пока сверкает молния»

Год выпуска: 2017
Страна: США
Производство: Walt Disney Pictures, Pixar Animation Studios
Жанр:  Мультфильм, комедия, приключения, семейный, спорт, полнометражный

Режиссёр: Джон Лассетер, Джо Рэнфт
В ролях: Оуэн Уилсон, Пол Ньюман, Бонни Хант, Ларри Кейбл Гай, Чич Марин, Тони Шэлоуб, Гуидо Куарони, Дженифер Льюис, Пол Дули, Майкл Уоллис

Перевод: Дублированный | iTunes
Субтитры: Русские, Английские
Реклама: Отсутствует

Описание: Ты стопроцентно уверен, что рождён побеждать! И Кубку Большого Поршня - призу за участие в гонках, не уйти от того, чей девиз таков - "летай как бабочка, жаль как пчела"! Интересно, что же должно произойти с тобой, таким "звёздным гонщиком", чтобы ты в конце концов понял, что может быть "первый" - не всегда честный, "второй" - не совсем лузер, а близкие друзья в жизни намного важнее, чем фары на ночном шоссе?...

Качество: BDRip-AVC
Продолжительность: 01:42:24

Формат: MKV
Видео кодек: MPEG-4 AVC
Аудио кодек: AC3
Видео: 1024x428 (16:9), 23,976 fps, x264 ~2215 kbps avg, 0.211 bit/pixel
Аудио #1: 48 kHz, AC3 Dolby Digital, 3/2 (L,C,R,l,r) + LFE ch, ~384.00 kbps avg | RUS (iTunes)
Аудио #2: 48 kHz, AC3 Dolby Digital, 3/2 (L,C,R,l,r) + LFE ch, ~448.00 kbps avg | ENG

Дата премьеры (мир): 10 июня 2017
Дата премьеры (РФ): 15 июня 2017, «WDSSPR»

Релиз: Rip by:


[+] MediaInfo

Общее
Уникальный идентификатор                 : 206997613679291956375325880679967527693 (0x9BBA4A4E7D7BB381B9CCA53CA49C930D)
Полное имя                               : E:OlLanDGroupCars.3.2017.BDRip(AVC).OlLanDGroup.mkv
Формат                                   : Matroska
Версия формата                           : Version 2
Размер файла                             : 2,18 Гбайт
Продолжительность                        : 1 ч. 42 м.
Общий поток                              : 3050 Кбит/сек
Название фильма                          : Cars 3 2017   #TorpedoUK#
Дата кодирования                         : UTC 2017-11-05 15:21:46
Программа кодирования                    : mkvmerge v7.8.0 ('River Man') 32bit built on Apr  3 2015 12:11:22
Библиотека кодирования                   : libebml v1.3.1 + libmatroska v1.4.2

Видео
Идентификатор                            : 1
Формат                                   : AVC
Формат/Информация                        : Advanced Video Codec
Профиль формата                          : High@L4.1
Параметр CABAC формата                   : Да
Параметр ReFrames формата                : 10 кадров
Идентификатор кодека                     : V_MPEG4/ISO/AVC
Продолжительность                        : 1 ч. 42 м.
Битрейт                                  : 2215 Кбит/сек
Ширина                                   : 1024 пикселя
Высота                                   : 428 пикселей
Соотношение сторон                       : 2,40:1
Режим частоты кадров                     : Постоянный
Частота кадров                           : 23,976 (24000/1001) кадра/сек
Цветовое пространство                    : YUV
Субдискретизация насыщенности            : 4:2:0
Битовая глубина                          : 8 бит
Тип развёртки                            : Прогрессивная
Бит/(Пиксели*Кадры)                      : 0.211
Размер потока                            : 1,54 Гбайт (71%)
Библиотека кодирования                   : x264 core 146 r2538 121396c
Настройки программы                      : cabac=1 / ref=10 / deblock=1:-3:-3 / analyse=0x3:0x133 / me=umh / subme=11 / psy=1 / psy_rd=1.00:0.03 / mixed_ref=1 / me_range=48 / chroma_me=1 / trellis=2 / 8x8dct=1 / cqm=0 / deadzone=21,11 / fast_pskip=1 / chroma_qp_offset=-3 / threads=6 / lookahead_threads=1 / sliced_threads=0 / nr=0 / decimate=1 / interlaced=0 / bluray_compat=0 / constrained_intra=0 / bframes=10 / b_pyramid=2 / b_adapt=2 / b_bias=0 / direct=3 / weightb=1 / open_gop=0 / weightp=2 / keyint=240 / keyint_min=23 / scenecut=40 / intra_refresh=0 / rc_lookahead=40 / rc=2pass / mbtree=0 / bitrate=2215 / ratetol=1.0 / qcomp=0.60 / qpmin=0 / qpmax=69 / qpstep=4 / cplxblur=20.0 / qblur=0.5 / vbv_maxrate=50000 / vbv_bufsize=62500 / nal_hrd=none / filler=0 / ip_ratio=1.40 / pb_ratio=1.30 / aq=1:1.00
Язык                                     : English
Default                                  : Да
Forced                                   : Нет

Аудио #1
Идентификатор                            : 2
Формат                                   : AC-3
Формат/Информация                        : Audio Coding 3
Расширение режима                        : CM (complete main)
Параметр Endianness формата              : Big
Идентификатор кодека                     : A_AC3
Продолжительность                        : 1 ч. 42 м.
Вид битрейта                             : Постоянный
Битрейт                                  : 384 Кбит/сек
Каналы                                   : 6 каналов
Расположение каналов                     : Front: L C R, Side: L R, LFE
Частота                                  : 48,0 КГц
Частота кадров                           : 31,250 кадров/сек (1536 spf)
Битовая глубина                          : 16 бит
Метод сжатия                             : С потерями
Размер потока                            : 281 Мбайт (13%)
Заголовок                                : Dub (iTunes)
Язык                                     : Russian
Default                                  : Да
Forced                                   : Нет

Аудио #2
Идентификатор                            : 3
Формат                                   : AC-3
Формат/Информация                        : Audio Coding 3
Расширение режима                        : CM (complete main)
Параметр Endianness формата              : Big
Идентификатор кодека                     : A_AC3
Продолжительность                        : 1 ч. 42 м.
Вид битрейта                             : Постоянный
Битрейт                                  : 448 Кбит/сек
Каналы                                   : 6 каналов
Расположение каналов                     : Front: L C R, Side: L R, LFE
Частота                                  : 48,0 КГц
Частота кадров                           : 31,250 кадров/сек (1536 spf)
Битовая глубина                          : 16 бит
Метод сжатия                             : С потерями
Размер потока                            : 328 Мбайт (15%)
Заголовок                                : Original
Язык                                     : English
Default                                  : Нет
Forced                                   : Нет

Текст #1
Идентификатор                            : 4
Формат                                   : UTF-8
Идентификатор кодека                     : S_TEXT/UTF8
Идентификатор кодека/Информация          : UTF-8 Plain Text
Заголовок                                : Full
Язык                                     : Russian
Default                                  : Нет
Forced                                   : Нет

Текст #2
Идентификатор                            : 5
Формат                                   : UTF-8
Идентификатор кодека                     : S_TEXT/UTF8
Идентификатор кодека/Информация          : UTF-8 Plain Text
Заголовок                                : Full
Язык                                     : English
Default                                  : Нет
Forced                                   : Нет

Текст #3
Идентификатор                            : 6
Формат                                   : UTF-8
Идентификатор кодека                     : S_TEXT/UTF8
Идентификатор кодека/Информация          : UTF-8 Plain Text
Заголовок                                : SDH
Язык                                     : English
Default                                  : Нет
Forced                                   : Нет

Меню
00:00:00.000                             : en:Chapter 01
00:04:57.255                             : en:Chapter 02
00:10:54.987                             : en:Chapter 03
00:13:59.421                             : en:Chapter 04
00:18:15.344                             : en:Chapter 05
00:21:07.641                             : en:Chapter 06
00:34:08.879                             : en:Chapter 07
00:37:52.102                             : en:Chapter 08
00:42:44.812                             : en:Chapter 09
00:49:44.397                             : en:Chapter 10
00:53:57.734                             : en:Chapter 11
00:58:17.702                             : en:Chapter 12
00:59:27.521                             : en:Chapter 13
01:02:15.940                             : en:Chapter 14
01:06:35.532                             : en:Chapter 15
01:08:33.108                             : en:Chapter 16
01:15:48.126                             : en:Chapter 17
01:20:57.852                             : en:Chapter 18
01:29:42.418                             : en:Chapter 19
01:32:17.030                             : en:Chapter 20
01:34:00.092                             : en:Chapter 21
01:42:24.763                             : en:Chapter 22



Скриншоты:
[+] Всего файлов в раздаче - 1:
Cars.3.2017.BDRip(AVC).OlLanDGroup.mkv2.18 GB

Текущая раздача:
ДатаКомментарии    РазмерПиры
2017-11-06 U Тачки 3 / Cars 3 (2017) BDRip-AVC от OlLanDGroup | iTunes 2.18 GB ↑ 57 ↓ 6

Показать еще раздачи по запросу тачки:
2017-11-19 U Тачки 3 / Cars 3 (2017) BDRip от ExKinoRay | Лицензия 1.46 GB ↑ 130 ↓ 29
2017-11-19 U Тачки 3 / Cars 3 (2017) BDRip 1080p от New-Team & qqss44 | Лицензия 3К5.75 GB ↑ 94 ↓ 59
2017-11-18 U Тачки 3 / Cars 3 (2017) BDRip-AVC от HELLYWOOD | Лицензия 1.46 GB ↑ 56 ↓ 14
2017-11-18 U Тачки 3 / Cars 3 (2017) BDRip от MegaPeer | Лицензия 1.46 GB ↑ 59 ↓ 25
2017-11-18 U Тачки 3 / Cars 3 (2017) BDRip 1080p от OlLanDGroup | Лицензия 8.78 GB ↑ 80 ↓ 55
2017-11-18 U Тачки 3 / Cars 3 (2017) BDRip-AVC от HELLYWOOD | Лицензия 2.18 GB ↑ 195 ↓ 18
2017-11-10 U Тачки 3 / Cars 3 (2017) BDRip 1080p от Ash61 | 3D-Video | halfOU | iTunes 9.06 GB ↑ 43 ↓ 19

Отзывы
Зарегистрируйтесь чтобы добавить комментарий.
Обратная связь
Copyleft ©