↑↓Torrent.by
Поиск
Логин: Регистрация
Пароль: Восстановить пароль
Загрузка...

Уральские Пельмени - По тещьему велению (2017) WEB-DL 1080p

Скачать uralskie-pelmeni-po-teschemu-veleniyu-2017-web-dl-1080p.torrent
U Магнитная ссылка Размер: 1.40 GB Раздают: 536 Качают: 282 Добавлен: 2017-11-06 20:10:32
Уральские Пельмени - По тещьему велению (2017) WEB-DL 1080p

Название: Уральские Пельмени - По тещьему велению
Оригинальное название: Оригинальное название (для иностранных фильмов)
Год выхода: 2017
Жанр: ТВ-шоу, юмор, сатира, развлекательный
Режиссер: Анастастия Ширина, Леонид Коновалов
В ролях: Дмитрий Брекоткин, Сергей Ершов, Сергей Исаев, Сергей Калугин, Вячеслав Мясников, Александр Попов, Андрей Рожков, Дмитрий Соколов (V), Максим Ярица, Юлия Михалкова, Стефания-Марьяна Гурская, Илана Юрьева, Ксения Корнева

О фильме:
Здесь смеется Аленушка, а платит Иванушка.
Здесь в пятницу вечером Иван-царевич, а в субботу утром Змей-Горыныч
Здесь теремок взят в ипотеку, а на помощь приходит Финист-ясный хохот
Здесь, если не отведать молодильные шуточки можно превратиться в тыкву.
Все это в новом шоу «ПО ТЁЩЬЕМУ ВЕЛЕНИЮ»!

Страна: Россия
Студия: YBW Group, СТС
Продолжительность: 01:12:28

Файл
Кодек: MPEG-4 AVC
Качество: WEB-DL 1080p
Видео: 1920x1080, 2666 Кбит/с, 25 fps
Звук: AAC, 2 ch, 96 kb/s

Релиз от: music80
[+] MediaInfo:
General
Complete name                  : F:_NetworkVideoУральские Пельмени - По тещьему велению (2017).mp4
Format                         : MPEG-4
Format profile                 : Base Media
Codec ID                       : isom (isom/iso2/avc1/mp41)
File size                      : 1.40 GiB
Duration                       : 1 h 12 min
Overall bit rate               : 2 766 kb/s
Writing application            : Lavf56.40.101

Video
ID                             : 1
Format                         : AVC
Format/Info                    : Advanced Video Codec
Format profile                 : High@L4
Format settings, CABAC         : Yes
Format settings, ReFrames      : 3 frames
Codec ID                       : avc1
Codec ID/Info                  : Advanced Video Coding
Duration                       : 1 h 12 min
Duration_FirstFrame            : -40 ms
Bit rate                       : 2 666 kb/s
Width                          : 1 920 pixels
Height                         : 1 080 pixels
Display aspect ratio           : 16:9
Frame rate mode                : Variable
Frame rate                     : 25.000 FPS
Minimum frame rate             : 25.000 FPS
Maximum frame rate             : 25.014 FPS
Color space                    : YUV
Chroma subsampling             : 4:2:0
Bit depth                      : 8 bits
Scan type                      : Progressive
Bits/(Pixel*Frame)             : 0.051
Stream size                    : 1.35 GiB (96%)
Color range                    : Limited
Color primaries                : BT.709
Transfer characteristics       : BT.709
Matrix coefficients            : BT.709

Audio
ID                             : 2
Format                         : AAC
Format/Info                    : Advanced Audio Codec
Format profile                 : LC
Codec ID                       : 40
Duration                       : 1 h 12 min
Bit rate mode                  : Constant
Bit rate                       : 93.6 kb/s
Channel(s)                     : 2 channels
Channel(s)_Original            : 1 channel
Channel positions              : Front: C
Sampling rate                  : 44.1 kHz
Frame rate                     : 43.066 FPS (1024 spf)
Compression mode               : Lossy
Stream size                    : 48.5 MiB (3%)
Default                        : Yes
Alternate group                : 1




Скриншоты:
[+] Всего файлов в раздаче - 1:
Уральские Пельмени - По тещьему велению (2017).mp41.40 GB

Текущая раздача:
ДатаКомментарии    РазмерПиры
2017-11-06 U Уральские Пельмени - По тещьему велению (2017) WEB-DL 1080p 1.40 GB ↑ 536 ↓ 282

Показать еще раздачи по запросу уральские:
2018-10-21 U Уральские Пельмени - Азбука Уральских Пельменей - Г (2018) WEBRip от music80 1.11 GB ↑ 95 ↓ 47
2018-10-21 U Уральские Пельмени - Утро в сосновом бреду (2018) WEBRip 1080p от music80 1К2.16 GB ↑ 171 ↓ 53
2018-10-20 U Уральские Пельмени - Утро в сосновом бреду [эфир от 19.10] (2018) WEBRip 720p 1.06 GB ↑ 312 ↓ 88
2018-10-20 U Уральские Пельмени - Утро в сосновом бреду [эфир от 19.10] (2018) SATRip 924.01 MB ↑ 633 ↓ 121
2018-10-18 U Уральские пельмени - Азбука Уральских Пельменей - Г (2018) WEBRip 720p 653.40 MB ↑ 354 ↓ 94
2018-06-18 U Уральские пельмени - Азбука Уральских Пельменей - Б (2018) WEBRip 720p 652.39 MB ↑ 190 ↓ 51
2018-06-16 U Уральские пельмени - Азбука Уральских Пельменей - В (2018) WEBRip 720p 1.06 GB ↑ 405 ↓ 90

Отзывы
Зарегистрируйтесь чтобы добавить комментарий.
Обратная связь
Copyleft ©