↑↓Torrent.by
Поиск
Логин: Регистрация
Пароль: Восстановить пароль
Загрузка...

Эмоджи фильм / The Emoji Movie (2017) BDRip 1080p от ExKinoRay | iTunes

Скачать emodzhi-film-the-emoji-movie-2017-bdrip-1080p-ot-exkinoray-itunes.torrent
U Магнитная ссылка Размер: 7.98 GB Раздают: 140 Качают: 67 Добавлен: 2017-11-08 08:44:06
Эмоджи фильм / The Emoji Movie (2017) BDRip 1080p от ExKinoRay | iTunes

Название: Эмоджи фильм
Оригинальное название: The Emoji Movie
Год выхода: 2017
Жанр: Мультфильм, фантастика, комедия, приключения, семейный
Режиссер: Энтони Леондис
В ролях: ТиДжей Миллер, Джеймс Корден, Анна Фэрис, Майя Рудольф, Стивен Райт, Дженнифер Кулидж, Патрик Стюарт, Кристина Агилера, София Вергара, Рэйчел

О фильме:
Знаете ли вы, что внутри каждого смартфона есть красочный городок Текстополис, в котором живут эмоджи? И что они ужасно радуются, когда владелец телефона именно их выбирает для своего сообщения? Каждый из эмоджи отвечает лишь за одну эмоцию, и только Джин может выражать несколько эмоций сразу. Он очень хочет стать таким же, как и его собратья, и для этого вместе со своими друзьями пускается в увлекательное путешествие по приложениям телефона в поисках программы, которая поможет ему измениться. Неожиданно герои узнают о грозной опасности, нависшей над городом. Смогут ли друзья спасти Текстополис и всех его обитателей?

Страна: США
Студия: Columbia Pictures, LStar Capital, Sony Pictures Animation
Продолжительность: 01:26:22
Перевод: Дублированный | iTunes

Файл
Качество: BDRip 1080p
Видео: MPEG-4 AVC, 1920x800, 12.4 Mbit/s, 23.976 fps
Звук:
Аудио #01: 48 kHz, AC3, 5.1, 384 Kbps | Дублированный | iTunes | RUS |
Аудио #02: 48 kHz, AC3, 5.1, 448 Kbps | Оригинал |  ENG |
Субтитры: Английские

Релиз: Автор релиза:


[+] MI
General
Unique ID                   : 238454627964924260607175259243947596529 (0xB364B0DABA925F759E3AEEAC0FB59AF1)
Complete name               : G:VideoSSDThe.Emoji.Movie.2017.BDRip.1080p.ExKinoRay.mkv
Format                      : Matroska
Format version              : Version 4 / Version 2
File size                   : 7.98 GiB
Duration                    : 1 h 26 min
Overall bit rate            : 13.2 Mb/s
Movie name                  : Release by ExKinoRay
Encoded date                : UTC 2017-11-07 19:05:06
Writing application         : mkvmerge v17.0.0 ('Be Ur Friend') 64-bit
Writing library             : libebml v1.3.5 + libmatroska v1.4.8

Video
ID                          : 1
Format                      : AVC
Format/Info                 : Advanced Video Codec
Format profile              : High@L4.1
Format settings             : CABAC / 5 Ref Frames
Format settings, CABAC      : Yes
Format settings, RefFrames  : 5 frames
Codec ID                    : V_MPEG4/ISO/AVC
Duration                    : 1 h 26 min
Bit rate                    : 12.4 Mb/s
Width                       : 1 920 pixels
Height                      : 800 pixels
Display aspect ratio        : 2.40:1
Frame rate mode             : Constant
Frame rate                  : 23.976 (24000/1001) FPS
Color space                 : YUV
Chroma subsampling          : 4:2:0
Bit depth                   : 8 bits
Scan type                   : Progressive
Bits/(Pixel*Frame)          : 0.337
Stream size                 : 7.48 GiB (94%)
Writing library             : x264 core 142 r2431+42 c69a006 tMod [8-bit@4:2:0 X86]
Encoding settings           : cabac=1 / ref=5 / deblock=1:-3:-3 / analyse=0x3:0x133 / me=umh / subme=10 / psy=1 / fade_compensate=0.00 / psy_rd=1.00:0.00 / mixed_ref=1 / me_range=48 / chroma_me=1 / trellis=2 / 8x8dct=1 / cqm=0 / deadzone=21,11 / fast_pskip=0 / chroma_qp_offset=-2 / threads=12 / lookahead_threads=1 / sliced_threads=0 / nr=0 / decimate=0 / interlaced=0 / bluray_compat=0 / constrained_intra=0 / fgo=0 / bframes=6 / b_pyramid=2 / b_adapt=2 / b_bias=0 / direct=3 / weightb=0 / open_gop=0 / weightp=2 / keyint=230 / keyint_min=22 / scenecut=40 / intra_refresh=0 / rc_lookahead=60 / rc=2pass / mbtree=1 / bitrate=12400 / ratetol=1.0 / qcomp=0.60 / qpmin=0:0:0 / qpmax=69:69:69 / qpstep=4 / cplxblur=20.0 / qblur=0.5 / vbv_maxrate=50000 / vbv_bufsize=50000 / nal_hrd=none / filler=0 / ip_ratio=1.40 / aq=1:1.00 / aq-sensitivity=10.00 / aq-factor=1.00:1.00:1.00 / aq2=0 / aq3=0
Language                    : English
Default                     : Yes
Forced                      : No

Audio #1
ID                          : 2
Format                      : AC-3
Format/Info                 : Audio Coding 3
Format settings, Endianness : Big
Codec ID                    : A_AC3
Duration                    : 1 h 26 min
Bit rate mode               : Constant
Bit rate                    : 384 kb/s
Channel(s)                  : 6 channels
Channel positions           : Front: L C R, Side: L R, LFE
Sampling rate               : 48.0 kHz
Frame rate                  : 31.250 FPS (1536 SPF)
Bit depth                   : 16 bits
Compression mode            : Lossy
Stream size                 : 237 MiB (3%)
Title                       : iTunes
Language                    : Russian
Service kind                : Complete Main
Default                     : Yes
Forced                      : No

Audio #2
ID                          : 3
Format                      : AC-3
Format/Info                 : Audio Coding 3
Format settings, Endianness : Big
Codec ID                    : A_AC3
Duration                    : 1 h 26 min
Bit rate mode               : Constant
Bit rate                    : 448 kb/s
Channel(s)                  : 6 channels
Channel positions           : Front: L C R, Side: L R, LFE
Sampling rate               : 48.0 kHz
Frame rate                  : 31.250 FPS (1536 SPF)
Bit depth                   : 16 bits
Compression mode            : Lossy
Stream size                 : 277 MiB (3%)
Title                       : Original
Language                    : English
Service kind                : Complete Main
Default                     : No
Forced                      : No

Text #1
ID                          : 4
Format                      : UTF-8
Codec ID                    : S_TEXT/UTF8
Codec ID/Info               : UTF-8 Plain Text
Duration                    : 1 h 19 min
Bit rate                    : 64 b/s
Count of elements           : 1224
Stream size                 : 37.6 KiB (0%)
Title                       : Full
Language                    : English
Default                     : No
Forced                      : No

Text #2
ID                          : 5
Format                      : UTF-8
Codec ID                    : S_TEXT/UTF8
Codec ID/Info               : UTF-8 Plain Text
Duration                    : 1 h 19 min
Bit rate                    : 84 b/s
Count of elements           : 1656
Stream size                 : 49.0 KiB (0%)
Title                       : SDH
Language                    : English
Default                     : No
Forced                      : No

Menu
00:00:00.000                : en:Chapter 01
00:05:12.478                : en:Chapter 02
00:11:38.531                : en:Chapter 03
00:15:49.406                : en:Chapter 04
00:22:24.051                : en:Chapter 05
00:26:48.356                : en:Chapter 06
00:32:11.262                : en:Chapter 07
00:39:15.186                : en:Chapter 08
00:44:16.487                : en:Chapter 09
00:48:42.753                : en:Chapter 10
00:53:07.392                : en:Chapter 11
00:58:19.370                : en:Chapter 12
01:02:35.752                : en:Chapter 13
01:07:18.784                : en:Chapter 14
01:11:54.893                : en:Chapter 15
01:16:05.394                : en:Chapter 16



Скриншоты:
[+] Всего файлов в раздаче - 1:
The.Emoji.Movie.2017.BDRip.1080p.ExKinoRay.mkv7.98 GB

Текущая раздача:
ДатаКомментарии    РазмерПиры
2017-11-08 U Эмоджи фильм / The Emoji Movie (2017) BDRip 1080p от ExKinoRay | iTunes 7.98 GB ↑ 140 ↓ 67

Показать еще раздачи по запросу эмоджи:
2017-11-11 U Эмоджи фильм / The Emoji Movie (2017) BDRip 720p от HELLYWOOD | iTunes 3.67 GB ↑ 103 ↓ 48
2017-11-11 U Эмоджи фильм / The Emoji Movie (2017) BDRip-AVC от HELLYWOOD | iTunes 2.14 GB ↑ 67 ↓ 16
2017-11-11 U Эмоджи фильм / The Emoji Movie (2017) BDRip-AVC от HELLYWOOD | iTunes 1.42 GB ↑ 84 ↓ 32
2017-11-11 U Эмоджи фильм / The Emoji Movie (2017) BDRip 1080p от HELLYWOOD | iTunes 5.61 GB ↑ 164 ↓ 27
2017-11-07 U Эмоджи фильм / The Emoji Movie (2017) HDRip от MegaPeer | iTunes 745.77 MB ↑ 141 ↓ 68
2017-11-07 U Эмоджи фильм / The Emoji Movie (2017) BDRip-AVC от OlLanDGroup | iTunes 1.74 GB ↑ 216 ↓ 103
2017-11-07 U Эмоджи фильм / The Emoji Movie (2017) BDRip от MegaPeer | iTunes 3К1.42 GB ↑ 635 ↓ 222

Отзывы
Зарегистрируйтесь чтобы добавить комментарий.
Обратная связь
Copyleft ©