↑↓Torrent.by
Поиск
Логин: Регистрация
Пароль: Восстановить пароль
Загрузка...

Джуда / Иуда / Juda [S01] (2017) HDTVRip | RusFilm

Скачать dzhuda-iuda-juda-s01-2017-hdtvrip-rusfilm.torrent
U Магнитная ссылка Размер: 5.09 GB Раздают: 95 Качают: 92 Добавлен: 2017-11-09 14:15:48
Джуда / Иуда / Juda [S01] (2017) HDTVRip | RusFilm

Название: Джуда (Иуда)
Оригинальное название: Juda
Год выпуска: 2017
Жанр:  Мистика, триллер
Выпущено: Израиль
Режиссер: Мэни Яиш

В ролях:
Цион Барух, Амос Тамам, Майк Борштейн, Морис Коэн, Анастасия Файн

Описание сериала:
Джуда - мелкий мошенник, вместе со своим подельником берет ссуду у французской мафии. Он летит в Румынию, чтобы играть в азартные игры, но встречает там мистическую женщину. Еврей и вампир, возможно ли это? В сериале есть эффектные погони и драки, раввин знает важные тайны – и умеет предвидеть будущие ходы. Французы-мафиози ищут деньги, израильские полицейские ищут мафиози. Вампиры из Румынии осваивают реалии Израиля. Друзья Юда и Ашер отбиваются от жадных и злобных кредиторов, попадают в разные крутые переплеты, проверяют на деле свою дружбу.


Страна: Израиль
Продолжительность: ~ 00:45:31
Перевод: Любительский двухголосый (RusFilm)
Субтитры: Иврит(вшитые)

Файл
Формат: AVI
Качество: HDTVRip

Видео: Xvid, ~ 1500 Кбит/с, 720x404
Аудио: 48 kHz, AC3 Dolby Digital, 2/0 (L,R) ch, ~192 kbps




[+] MediaInfo

Формат                                   : AVI
Формат/Информация                        : Audio Video Interleave
Размер файла                             : 758 Мбайт
Продолжительность                        : 36 м.
Общий поток                              : 2910 Кбит/сек
Библиотека кодирования                   : VirtualDub build 35491/release

Видео
Идентификатор                            : 0
Формат                                   : MPEG-4 Visual
Профиль формата                          : Advanced Simple@L5
Параметр BVOP формата                    : 1
Параметр QPel формата                    : Нет
Параметр GMC формата                     : Без точки перехода
Параметр матрицы формата                 : Default (MPEG)
Режим смешивания                         : Сжатый битовый поток
Идентификатор кодека                     : XVID
Идентификатор кодека/Подсказка           : XviD
Продолжительность                        : 36 м.
Битрейт                                  : 1489 Кбит/сек
Ширина                                   : 720 пикселей
Высота                                   : 400 пикселей
Соотношение сторон                       : 16:9
Частота кадров                           : 25,000 кадров/сек
Цветовое пространство                    : YUV
Субдискретизация насыщенности            : 4:2:0
Битовая глубина                          : 8 бит
Тип развёртки                            : Прогрессивная
Метод сжатия                             : С потерями
Бит/(Пиксели*Кадры)                      : 0.207
Размер потока                            : 388 Мбайт (51%)
Библиотека кодирования                   : XviD 73

Аудио
Идентификатор                            : 1
Формат                                   : PCM
Параметр Endianness формата              : Little
Параметр Sign формата                    : Signed
Идентификатор кодека                     : 1
Продолжительность                        : 36 м.
Вид битрейта                             : Постоянный
Битрейт                                  : 1411,2 Кбит/сек
Каналы                                   : 2 канала
Частота                                  : 44,1 КГц
Битовая глубина                          : 16 бит
Размер потока                            : 367 Мбайт (48%)
Продолжительность промежутка             : 40  мс. (1,00 видеокадр)
Время предзагрузки промежутка            : 500  мс.




Скриншоты:
[+] Всего файлов в раздаче - 8:
Juda S01E01.HDTVRip.400p.RusFilm.avi742.89 MB
Juda S01E02.HDTVRip.400p.RusFilm.avi581.40 MB
Juda S01E03.HDTVRip.400p.RusFilm.avi757.78 MB
Juda S01E04.HDTVRip.400p.RusFilm.avi946.86 MB
Juda S01E05.HDTVRip.400p.RusFilm.avi472.51 MB
Juda S01E06.HDTVRip.400p.RusFilm.avi583.45 MB
Juda S01E07.HDTVRip.720p.RusFilm.avi446.04 MB
Juda S01E08.HDTVRip.720p.RusFilm.avi684.80 MB

Текущая раздача:
ДатаКомментарии    РазмерПиры
2017-11-09 U Джуда / Иуда / Juda [S01] (2017) HDTVRip | RusFilm 5.09 GB ↑ 95 ↓ 92

Похожие раздачи по запросу - джуда:
2017-11-09 U Джуда / Иуда / Juda [S01] (2017) HDTVRip 720р | RusFilm 1К7.89 GB ↑ 77 ↓ 76
2017-09-09 U Джуда (Иуда) / Juda [01х01 из 08] (2017) HDTVRip 720р | RusFilm 2К866.67 MB ↑ 66 ↓ 21

Отзывы
Зарегистрируйтесь чтобы добавить комментарий.
Обратная связь
Copyleft ©