↑↓Torrent.by
Поиск
Логин: Регистрация
Пароль: Восстановить пароль
Загрузка...

Мерзлая земля / The Frozen Ground (2013) BDRip 720p от NNNB | D, A

Скачать merzlaya-zemlya-the-frozen-ground-2013-bdrip-720p-ot-nnnb-d-a.torrent
U Магнитная ссылка Размер: 5.10 GB Раздают: 63 Качают: 35 Добавлен: 2017-11-09 14:16:49
Мерзлая земля / The Frozen Ground (2013) BDRip 720p от NNNB | D, A

Мерзлая земля / The Frozen Ground
«Охотник становится жертвой»
Фильм основан на реальных событиях

Русское название: Мерзлая земля
Оригинальное название: The Frozen Ground
Год выпуска: 2013
Жанр: триллер, драма, криминал, детектив
Выпущено: США
Режиссер: Скотт Уокер
В ролях: Николас Кейдж , Ванесса Энн Хадженс , Джон Кьюсак , Дин Норрис , Джина Мантенья , Роберт Форджит , Брэд Уильям Хенке , Майкл МакГрэйди , Кэтрин ЛаНаса , Райан О’Нан , Кевин Данн , Коннор Роком
Перевод: Дублированный, Авторский одноголосый


Сюжет фильма:
Все были уверены, что Роберт Хансен - приличный семьянин, владелец пекарни и славный охотник. Никто не подозревал, что на самом деле он - безжалостный маньяк, который похитил и убил более двадцати женщин. И только 17-летней Синди Полсон удалось сбежать от убийцы. Она наводит на след маньяка полицейского, который начинает опасное расследование. Ему никто не верит: Хансен - слишком приличный человек для такого обвинения... Но упорный коп знает свое дело и должен дойти до конца...

Качество: BDRip 720p
Формат: AVC  (библиотека кодирования x.264)
Контейнер (Расширение): MKV
Видео: 1280x534, 4991 Кбит/сек, 23,976 кадр/сек, 0,305 Бит/[Пиксели*Кадры]
Аудио №1: русский / AC3 / 5.1 / 48 kHz / 640 kbps / |Дублированный|
Аудио №2: русский / AC3 / 5.1 / 48 kHz / 640 kbps / |Авторский одноголосый, Юрий Немахов|
Аудио №3: английский / AC3 / 5.1 / 48 kHz / 640 kbps /
Субтитры: русские (Voronine), английские (Full), английские (SDH)
Навигация по главам(Чаптеры): есть
Продолжительность: 01:45:34

Автор рипа: Группа:


[+] MediaInfo

Format                                   : Matroska
Format version                           : Version 2
File size                                : 5.10 GiB
Duration                                 : 1 h 45 min
Overall bit rate                         : 6 911 kb/s
Movie name                               : The Frozen Ground.(2013).BDRip.720p.[denis100]
Encoded date                             : UTC 2017-11-08 16:23:34
Writing application                      : mkvmerge v5.8.0 ('No Sleep / Pillow') built on Sep  2 2012 15:37:04
Writing library                          : libebml v1.2.3 + libmatroska v1.3.0

Video
ID                                       : 1
Format                                   : AVC
Format/Info                              : Advanced Video Codec
Format profile                           : High@L4.1
Format settings, CABAC                   : Yes
Format settings, ReFrames                : 11 frames
Codec ID                                 : V_MPEG4/ISO/AVC
Duration                                 : 1 h 45 min
Bit rate                                 : 4 991 kb/s
Width                                    : 1 280 pixels
Height                                   : 534 pixels
Display aspect ratio                     : 2.40:1
Frame rate mode                          : Constant
Frame rate                               : 23.976 (24000/1001) FPS
Color space                              : YUV
Chroma subsampling                       : 4:2:0
Bit depth                                : 8 bits
Scan type                                : Progressive
Bits/(Pixel*Frame)                       : 0.305
Stream size                              : 3.58 GiB (70%)
Title                                    : The Frozen Ground.(2013).BDRip.720p.[denis100]
Writing library                          : x264 core 152 r2851 ba24899
Encoding settings                        : cabac=1 / ref=11 / deblock=1:-3:-3 / analyse=0x3:0x113 / me=umh / subme=11 / psy=1 / psy_rd=1.00:0.10 / mixed_ref=1 / me_range=32 / chroma_me=1 / trellis=2 / 8x8dct=1 / cqm=0 / deadzone=21,11 / fast_pskip=0 / chroma_qp_offset=-3 / threads=6 / lookahead_threads=1 / sliced_threads=0 / nr=0 / decimate=1 / interlaced=0 / bluray_compat=0 / constrained_intra=0 / bframes=8 / b_pyramid=2 / b_adapt=2 / b_bias=0 / direct=3 / weightb=1 / open_gop=0 / weightp=2 / keyint=240 / keyint_min=23 / scenecut=40 / intra_refresh=0 / rc=2pass / mbtree=0 / bitrate=4991 / ratetol=1.0 / qcomp=0.60 / qpmin=0 / qpmax=69 / qpstep=4 / cplxblur=20.0 / qblur=0.5 / ip_ratio=1.40 / pb_ratio=1.30 / aq=1:0.75
Language                                 : English
Default                                  : Yes
Forced                                   : No

Audio #1
ID                                       : 2
Format                                   : AC-3
Format/Info                              : Audio Coding 3
Mode extension                           : CM (complete main)
Format settings, Endianness              : Big
Codec ID                                 : A_AC3
Duration                                 : 1 h 45 min
Bit rate mode                            : Constant
Bit rate                                 : 640 kb/s
Channel(s)                               : 6 channels
Channel positions                        : Front: L C R, Side: L R, LFE
Sampling rate                            : 48.0 kHz
Frame rate                               : 31.250 FPS (1536 spf)
Compression mode                         : Lossy
Stream size                              : 483 MiB (9%)
Title                                    : Dub
Language                                 : Russian
Default                                  : Yes
Forced                                   : No

Audio #2
ID                                       : 3
Format                                   : AC-3
Format/Info                              : Audio Coding 3
Mode extension                           : CM (complete main)
Format settings, Endianness              : Big
Codec ID                                 : A_AC3
Duration                                 : 1 h 45 min
Bit rate mode                            : Constant
Bit rate                                 : 640 kb/s
Channel(s)                               : 6 channels
Channel positions                        : Front: L C R, Side: L R, LFE
Sampling rate                            : 48.0 kHz
Frame rate                               : 31.250 FPS (1536 spf)
Compression mode                         : Lossy
Stream size                              : 483 MiB (9%)
Title                                    : AVO, Ю. Немахов
Language                                 : Russian
Default                                  : No
Forced                                   : No

Audio #3
ID                                       : 4
Format                                   : AC-3
Format/Info                              : Audio Coding 3
Mode extension                           : CM (complete main)
Format settings, Endianness              : Big
Codec ID                                 : A_AC3
Duration                                 : 1 h 45 min
Bit rate mode                            : Constant
Bit rate                                 : 640 kb/s
Channel(s)                               : 6 channels
Channel positions                        : Front: L C R, Side: L R, LFE
Sampling rate                            : 48.0 kHz
Frame rate                               : 31.250 FPS (1536 spf)
Compression mode                         : Lossy
Stream size                              : 483 MiB (9%)
Language                                 : English
Default                                  : No
Forced                                   : No

Text #1
ID                                       : 5
Format                                   : UTF-8
Codec ID                                 : S_TEXT/UTF8
Codec ID/Info                            : UTF-8 Plain Text
Title                                    : Voronine
Language                                 : Russian
Default                                  : No
Forced                                   : No

Text #2
ID                                       : 6
Format                                   : UTF-8
Codec ID                                 : S_TEXT/UTF8
Codec ID/Info                            : UTF-8 Plain Text
Title                                    : Full
Language                                 : English
Default                                  : No
Forced                                   : No

Text #3
ID                                       : 7
Format                                   : UTF-8
Codec ID                                 : S_TEXT/UTF8
Codec ID/Info                            : UTF-8 Plain Text
Title                                    : SDH
Language                                 : English
Default                                  : No
Forced                                   : No

Menu
00:00:00.000                             : :Chapter 01
00:05:41.341                             : :Chapter 02
00:12:40.885                             : :Chapter 03
00:18:13.634                             : :Chapter 04
00:23:03.131                             : :Chapter 05
00:29:12.417                             : :Chapter 06
00:36:09.959                             : :Chapter 07
00:44:15.736                             : :Chapter 08
00:48:28.280                             : :Chapter 09
00:55:44.090                             : :Chapter 10
01:01:32.105                             : :Chapter 11
01:09:21.782                             : :Chapter 12
01:15:47.543                             : :Chapter 13
01:22:33.740                             : :Chapter 14
01:27:34.874                             : :Chapter 15
01:31:15.052                             : :Chapter 16




Скриншоты:
[+] Всего файлов в раздаче - 1:
The Frozen Ground.(2013).BDRip.720p.[denis100].mkv5.10 GB

Отзывы
aviator
Хороший степенный
Детектив
Размер гуд
Рейтинг соответствует
Спасибо

Зарегистрируйтесь чтобы добавить комментарий.
Обратная связь
Copyleft ©