↑↓Torrent.by
Поиск
Логин: Регистрация
Пароль: Восстановить пароль
Загрузка...

Ужас Амитивилля: Пробуждение / Amityville: The Awakening (2017) WEB-DLRip 720p | L

Скачать uzhas-amitivillya-probuzhdenie-amityville-the-awakening-2017-web-dlrip-720p-l.torrent
U Магнитная ссылка Размер: 2.65 GB Раздают: 289 Качают: 168 Добавлен: 2017-11-09 18:49:50
Ужас Амитивилля: Пробуждение / Amityville: The Awakening (2017) WEB-DLRip 720p | L

Наименование: Ужас Амитивилля: Пробуждение
Оригинальное наименование: Amityville: The Awakening
Произведено: США
Категория: ужасы, триллер
Режиссер постановщик: Франк Халфун
В главных ролях: Белла Торн, Камерон Монахэн, Дженнифер Джейсон Ли, МакКенна Грейс, Дженнифер Моррисон, Томас Манн, Кертвуд Смит, Тейлор Спрейтлер, Ава Сантана, Хантер Голигоски

О фильме:
Мать-одиночка переезжает с тремя детьми в загадочный дом, даже не подозревая о кровавом прошлом их нового жилища. У каждого дома есть история. У этого - страшная тайна.

Файл
Качество: WEB-DLRip 7220p
Видео данные: MKV, 1280x544 (2.35:1), 23.976  fps,  4000 Кбит/с
Аудио данные: Русский (AC3, 2 ch, 384 Кбит/с)
Перевод: Любительский многоголосый (GreenРай Studio)
Продолжительность: 01:27:30

Над релизом работали:
Перевод - Юлия Лазаренко
Озвучили - Нана Саркисян, Илья Кочетков, Анастасия Гаврилюк

ВНИМАНИЕ! Присутствует реклама!

Релиз:


[+] Mediainfo
General
Unique ID                   : 225879362675026116958496271780599920047 (0xA9EEC8682B47996AA1AB50E1F56D75AF)
Complete name               : D:АмитивильAmityville.The.Awakening.2017.P.WEB-DL.720p.mkv
Format                      : Matroska
Format version              : Version 4 / Version 2
File size                   : 2.65 GiB
Duration                    : 1 h 27 min
Overall bit rate mode       : Constant
Overall bit rate            : 4 316 kb/s
Encoded date                : UTC 2017-11-07 15:36:39
Writing application         : mkvmerge v8.3.0 ('Over the Horizon') 64bit
Writing library             : libebml v1.3.1 + libmatroska v1.4.2

Video
ID                          : 1
Format                      : AVC
Format/Info                 : Advanced Video Codec
Format profile              : Main@L3.1
Format settings, CABAC      : Yes
Format settings, ReFrames   : 3 frames
Codec ID                    : V_MPEG4/ISO/AVC
Duration                    : 1 h 27 min
Bit rate mode               : Constant
Bit rate                    : 4 000 kb/s
Width                       : 1 280 pixels
Height                      : 544 pixels
Display aspect ratio        : 2.35:1
Frame rate mode             : Constant
Frame rate                  : 23.976 (23976/1000) FPS
Standard                    : NTSC
Color space                 : YUV
Chroma subsampling          : 4:2:0
Bit depth                   : 8 bits
Scan type                   : Progressive
Bits/(Pixel*Frame)          : 0.240
Stream size                 : 2.41 GiB (91%)
Language                    : English
Default                     : Yes
Forced                      : No
Color range                 : Limited

Audio
ID                          : 2
Format                      : AC-3
Format/Info                 : Audio Coding 3
Mode extension              : CM (complete main)
Format settings, Endianness : Big
Codec ID                    : A_AC3
Duration                    : 1 h 27 min
Bit rate mode               : Constant
Bit rate                    : 384 kb/s
Channel(s)                  : 2 channels
Channel positions           : Front: L R
Sampling rate               : 48.0 kHz
Frame rate                  : 31.250 FPS (1536 spf)
Compression mode            : Lossy
Stream size                 : 241 MiB (9%)
Default                     : Yes
Forced                      : No



Скриншоты:
[+] Всего файлов в раздаче - 1:
Amityville.The.Awakening.2017.P.WEB-DL.720p.mkv2.65 GB

Текущая раздача:
ДатаКомментарии    РазмерПиры
2017-11-09 U Ужас Амитивилля: Пробуждение / Amityville: The Awakening (2017) WEB-DLRip 720p | L 2.65 GB ↑ 289 ↓ 168

Показать еще раздачи по запросу ужас:
2017-11-17 U Ужас Амитивилля: Пробуждение / Amityville: The Awakening (2017) HDRip от MegaPeer | iTunes 1.37 GB ↑ 21 ↓ 9
2017-11-15 U Ужас Амитивилля: Пробуждение / Amityville: The Awakening (2017) BDRip 1080p | iTunes 7.18 GB ↑ 88 ↓ 66
2017-11-15 U Ужас Амитивилля: Пробуждение / Amityville: The Awakening (2017) BDRip 720p | iTunes 4.60 GB ↑ 47 ↓ 63
2017-11-11 U Ужас Амитивилля: Пробуждение / Amityville: The Awakening (2017) WEB-DLRip-AVC от ExKinoRay | iTunes 746.55 MB ↑ 94 ↓ 23
2017-11-10 U Ужас Амитивилля: Пробуждение / Amityville: The Awakening (2017) WEB-DLRip-AVC от OlLanDGroup | iTunes 1.25 GB ↑ 175 ↓ 52
2017-11-10 U Ужас Амитивилля: Пробуждение / Amityville: The Awakening (2017) WEB-DLRip от MegaPeer | iTunes 1.43 GB ↑ 73 ↓ 47
2017-11-10 U Ужас Амитивилля: Пробуждение / Amityville: The Awakening (2017) WEB-DL 1080p от ExKinoRay | iTunes 3.27 GB ↑ 105 ↓ 70

Отзывы
Зарегистрируйтесь чтобы добавить комментарий.
Обратная связь
Copyleft ©