↑↓Torrent.by
Поиск
Логин: Регистрация
Пароль: Восстановить пароль
Загрузка...

Джуда / Иуда / Juda [S01] (2017) HDTVRip 720р | RusFilm

Скачать dzhuda-iuda-juda-s01-2017-hdtvrip-720r-rusfilm.torrent
U Магнитная ссылка Размер: 7.89 GB Раздают: 77 Качают: 76 Добавлен: 2017-11-09 18:50:39
Джуда / Иуда / Juda [S01] (2017) HDTVRip 720р | RusFilm

Название: Джуда (Иуда)
Оригинальное название: Juda
Год выпуска: 2017
Жанр:  Мистика, триллер
Выпущено: Израиль
Режиссер: Мэни Яиш

В ролях:
Цион Барух, Амос Тамам, Майк Борштейн, Морис Коэн, Анастасия Файн

Описание сериала:
Джуда - мелкий мошенник, вместе со своим подельником берет ссуду у французской мафии. Он летит в Румынию, чтобы играть в азартные игры, но встречает там мистическую женщину. Еврей и вампир, возможно ли это? В сериале есть эффектные погони и драки, раввин знает важные тайны – и умеет предвидеть будущие ходы. Французы-мафиози ищут деньги, израильские полицейские ищут мафиози. Вампиры из Румынии осваивают реалии Израиля. Друзья Юда и Ашер отбиваются от жадных и злобных кредиторов, попадают в разные крутые переплеты, проверяют на деле свою дружбу.


Страна: Израиль
Продолжительность: ~ 00:45:31
Перевод: Любительский двухголосый (RusFilm)
Субтитры: Иврит(вшитые)

Файл
Формат: MKV
Качество: HDTVRip (720p)

Видео: MPEG-4 AVC, ~ 2000 Кбит/с, 1280x720
Аудио: 48 kHz, AC3 Dolby Digital, 2/0 (L,R) ch, ~192 kbps




[+] MediaInfo

Format                      : Matroska
Format version              : Version 4 / Version 2
File size                   : 867 MiB
Duration                    : 1h 1mn
Overall bit rate            : 1 956 Kbps
Encoded date                : UTC 2017-09-08 22:12:11
Writing application         : mkvmerge v6.0.0 ('Coming Up For Air') built on Jan 20 2013 09:52:00
Writing library             : libebml v1.3.0 + libmatroska v1.4.0

Video
ID                          : 1
Format                      : AVC
Format/Info                 : Advanced Video Codec
Format profile              : High@L3
Format settings, CABAC      : No
Format settings, ReFrames   : 1 frame
Codec ID                    : V_MPEG4/ISO/AVC
Duration                    : 1h 1mn
Bit rate                    : 1 725 Kbps
Nominal bit rate            : 1 822 Kbps
Width                       : 1 280 pixels
Height                      : 720 pixels
Display aspect ratio        : 16:9
Frame rate mode             : Constant
Frame rate                  : 25.000 fps
Color space                 : YUV
Chroma subsampling          : 4:2:0
Bit depth                   : 8 bits
Scan type                   : Progressive
Bits/(Pixel*Frame)          : 0.075
Stream size                 : 764 MiB (88%)
Writing library             : x264 core 116 r2019 9cc407d
Encoding settings           : cabac=0 / ref=1 / deblock=1:0:0 / analyse=0x3:0x113 / me=hex / subme=7 / psy=1 / psy_rd=1.00:0.00 / mixed_ref=0 / me_range=16 / chroma_me=1 / trellis=1 / 8x8dct=1 / cqm=0 / deadzone=21,11 / fast_pskip=1 / chroma_qp_offset=-2 / threads=6 / sliced_threads=0 / nr=0 / decimate=1 / interlaced=0 / bluray_compat=0 / constrained_intra=0 / bframes=0 / weightp=2 / keyint=250 / keyint_min=25 / scenecut=40 / intra_refresh=0 / rc_lookahead=40 / rc=abr / mbtree=1 / bitrate=1822 / ratetol=1.0 / qcomp=0.60 / qpmin=0 / qpmax=69 / qpstep=4 / ip_ratio=1.40 / aq=1:1.00
Default                     : Yes
Forced                      : No

Audio
ID                          : 2
Format                      : AC-3
Format/Info                 : Audio Coding 3
Mode extension              : CM (complete main)
Format settings, Endianness : Big
Codec ID                    : A_AC3
Duration                    : 1h 1mn
Bit rate mode               : Constant
Bit rate                    : 192 Kbps
Channel(s)                  : 2 channels
Channel positions           : Front: L R
Sampling rate               : 48.0 KHz
Frame rate                  : 31.250 fps (1536 spf)
Compression mode            : Lossy
Stream size                 : 85.1 MiB (10%)
Default                     : Yes
Forced                      : No



Скриншоты:
[+] Всего файлов в раздаче - 8:
Juda S01E01.HDTVRip.720p.RusFilm.mkv866.67 MB
Juda S01E02.HDTVRip.720p.RusFilm.mkv631.75 MB
Juda S01E03.HDTVRip.720p.RusFilm.mkv990.43 MB
Juda S01E04.HDTVRip.720p.RusFilm.mkv1.06 GB
Juda S01E05.HDTVRip.720p.RusFilm.mkv953.99 MB
Juda S01E06.HDTVRip.720p.RusFilm.mkv1.21 GB
Juda S01E07.HDTVRip.720p.RusFilm.mkv954.45 MB
Juda S01E08.HDTVRip.720p.RusFilm.mkv1.32 GB

Текущая раздача:
ДатаКомментарии    РазмерПиры
2017-11-09 U Джуда / Иуда / Juda [S01] (2017) HDTVRip 720р | RusFilm 1 К 7.89 GB ↑ 77 ↓ 76

Похожие раздачи по запросу - джуда:
2017-11-09 U Джуда / Иуда / Juda [S01] (2017) HDTVRip | RusFilm 5.09 GB ↑ 95 ↓ 92
2017-09-09 U Джуда (Иуда) / Juda [01х01 из 08] (2017) HDTVRip 720р | RusFilm 2К866.67 MB ↑ 66 ↓ 21

Отзывы
EugeneNog
Еврей-вампир? Это что-то новенькое. :)

Зарегистрируйтесь чтобы добавить комментарий.
Обратная связь
Copyleft ©