↑↓Torrent.by
Поиск
Логин: Регистрация
Пароль: Восстановить пароль
Загрузка...

Явная ложь / Thumper (2017) WEBRip | L2

Скачать yavnaya-lozh-thumper-2017-webrip-l2.torrent
U Магнитная ссылка Размер: 1.36 GB Раздают: 80 Качают: 30 Добавлен: 2017-11-10 05:37:54
Явная ложь / Thumper (2017) WEBRip | L2

Название: Явная ложь
Оригинальное название: Thumper

Год выхода: 2017
Жанр: Триллер, драма, криминал
Режиссер: Джордан Росс
В ролях: Элайза Тейлор, Лина Хиди, Пабло Шрайбер, Бен Фельдман, Даниэль Уэббер, Грант Уитни Харви, Бретт Райс, Бриджитт Кали, Бритен Далтон, Мика Паркер и другие
О фильме:
Подростки неблагополучного района начинают работать на местного и опасного торговца наркотиками. Когда в город прибывает новая девушка, скрывающая тайну, их отношения ставят под угрозу весь бизнес.

Страна: США, Automatik Entertainment, Exhibit, Parliament of Owls
Продолжительность: 01:33:20
Перевод: Любительский (двухголосый закадровый) | RecentFilms

Файл
Кодек: XviD
Качество: WEBRip
Видео: 720x400, 23,976 fps, ~1892 Kbps, 0.27 bit/pixel
Звук:
Аудио rus: AC3, 48 kHz, 2 ch, 192 Kbps
Субтитры: отсутствуют

Реклама: присутствует

Семпл

Релиз от: RecentFilms


[+] MediaInfo:

General
Complete name                            : F:FilmsThumper.2017.WEBRip.RecentFilmsThumper.2017.WEBRip.RecentFilms.avi
Format                                   : AVI
Format/Info                              : Audio Video Interleave
Format profile                           : OpenDML
File size                                : 1.36 GiB
Duration                                 : 1h 33mn
Overall bit rate                         : 2 091 Kbps
Writing application                      : Lavf57.71.100

Video
ID                                       : 0
Format                                   : MPEG-4 Visual
Format profile                           : Advanced Simple@L5
Format settings, BVOP                    : 1
Format settings, QPel                    : No
Format settings, GMC                     : No warppoints
Format settings, Matrix                  : Default (H.263)
Codec ID                                 : XVID
Codec ID/Hint                            : XviD
Duration                                 : 1h 33mn
Bit rate                                 : 1 887 Kbps
Width                                    : 720 pixels
Height                                   : 400 pixels
Display aspect ratio                     : 16:9
Frame rate                               : 23.976 (24000/1001) fps
Color space                              : YUV
Chroma subsampling                       : 4:2:0
Bit depth                                : 8 bits
Scan type                                : Progressive
Compression mode                         : Lossy
Bits/(Pixel*Frame)                       : 0.273
Stream size                              : 1.23 GiB (90%)
Writing library                          : XviD 67

Audio
ID                                       : 1
Format                                   : AC-3
Format/Info                              : Audio Coding 3
Mode extension                           : CM (complete main)
Format settings, Endianness              : Big
Codec ID                                 : 2000
Duration                                 : 1h 33mn
Bit rate mode                            : Constant
Bit rate                                 : 192 Kbps
Channel(s)                               : 2 channels
Channel positions                        : Front: L R
Sampling rate                            : 48.0 KHz
Frame rate                               : 31.250 fps (1536 spf)
Bit depth                                : 16 bits
Compression mode                         : Lossy
Stream size                              : 128 MiB (9%)
Alignment                                : Aligned on interleaves
Interleave, duration                     : 32 ms (0.77 video frame)




Скриншоты:
[+] Всего файлов в раздаче - 1:
Thumper.2017.WEBRip.RecentFilms.avi1.36 GB

Текущая раздача:
ДатаКомментарии    РазмерПиры
2017-11-10 U Явная ложь / Thumper (2017) WEBRip | L2 1.36 GB ↑ 80 ↓ 30

Похожие раздачи по запросу - явная:
2017-11-13 U Явная ложь / Thumper (2017) WEBDLRip 720p | AlexFilm 2.44 GB ↑ 122 ↓ 105
2017-11-10 U Явная ложь / Thumper (2017) WEBRip 720p | L2 2.60 GB ↑ 60 ↓ 17

Отзывы
Зарегистрируйтесь чтобы добавить комментарий.
Обратная связь
Copyleft ©