↑↓Torrent.by
Поиск
Логин: Регистрация
Пароль: Восстановить пароль
Загрузка...

Ужас Амитивилля: Пробуждение / Amityville: The Awakening (2017) WEB-DL 1080p от ExKinoRay | iTunes

Скачать uzhas-amitivillya-probuzhdenie-amityville-the-awakening-2017-web-dl-1080p-ot-exkinoray-itunes.torrent
U Магнитная ссылка Размер: 3.27 GB Раздают: 105 Качают: 70 Добавлен: 2017-11-10 05:38:01
Ужас Амитивилля: Пробуждение / Amityville: The Awakening (2017) WEB-DL 1080p от ExKinoRay | iTunes

Название: Ужас Амитивилля: Пробуждение
Оригинальное название: Amityville: The Awakening
Год выхода: 2017
Жанр: Ужасы, триллер
Режиссер: Франк Халфун
В ролях: Белла Торн, Кэмерон Монахэн, Дженнифер Джейсон Ли, Маккенна Грэйс, Дженнифер Моррисон, Томас Манн, Кертвуд Смит, Тейлор Спрейтлер, Ава Сантана, Хантер Голигоски

О фильме:
Мать-одиночка переезжает с тремя детьми в загадочный дом, даже не подозревая о кровавом прошлом их нового жилища. У каждого дома есть история. У этого — страшная тайна.

Страна: США
Студия: Blumhouse Productions, Dimension Films, Miramax, Panic Ventures
Продолжительность: 01:27:20
Перевод: Дублированный | iTunes

Файл
Качество: WEB-DL 1080p
Видео: MPEG-4 AVC, 1920x816, 4593 Mbit/s, 23.976 fps
Звук:
Аудио #01: 48 kHz, AC3, 5.1, 384 Kbps | Дублированный | iTunes | RUS |
Аудио #02: 48 kHz, AC3, 5.1, 384 Kbps | Оригинал |  ENG |
Субтитры: Английские

Релиз: Автор релиза:


[+] MI
General
Unique ID                   : 239513485661520451428133909105949294531 (0xB4309E91C90F4C45B3DD6149B35C3FC3)
Complete name               : G:VideoSSDAmityville.The.Awakening.2017.WEB-DL.1080p.ExKinoRay.mkv
Format                      : Matroska
Format version              : Version 4 / Version 2
File size                   : 3.27 GiB
Duration                    : 1 h 27 min
Overall bit rate            : 5 362 kb/s
Movie name                  : Release by ExKinoRay
Encoded date                : UTC 2017-11-09 22:39:56
Writing application         : mkvmerge v17.0.0 ('Be Ur Friend') 64-bit
Writing library             : libebml v1.3.5 + libmatroska v1.4.8

Video
ID                          : 1
Format                      : AVC
Format/Info                 : Advanced Video Codec
Format profile              : High@L4
Format settings             : CABAC / 5 Ref Frames
Format settings, CABAC      : Yes
Format settings, RefFrames  : 5 frames
Codec ID                    : V_MPEG4/ISO/AVC
Duration                    : 1 h 27 min
Bit rate                    : 4 593 kb/s
Width                       : 1 920 pixels
Height                      : 816 pixels
Display aspect ratio        : 2.35:1
Frame rate mode             : Constant
Frame rate                  : 23.976 (23976/1000) FPS
Color space                 : YUV
Chroma subsampling          : 4:2:0
Bit depth                   : 8 bits
Scan type                   : Progressive
Bits/(Pixel*Frame)          : 0.122
Stream size                 : 2.80 GiB (86%)
Language                    : English
Default                     : Yes
Forced                      : No
Color range                 : Limited
Color primaries             : BT.709
Transfer characteristics    : BT.709
Matrix coefficients         : BT.709

Audio #1
ID                          : 2
Format                      : AC-3
Format/Info                 : Audio Coding 3
Format settings, Endianness : Big
Codec ID                    : A_AC3
Duration                    : 1 h 27 min
Bit rate mode               : Constant
Bit rate                    : 384 kb/s
Channel(s)                  : 6 channels
Channel positions           : Front: L C R, Side: L R, LFE
Sampling rate               : 48.0 kHz
Frame rate                  : 31.250 FPS (1536 SPF)
Bit depth                   : 16 bits
Compression mode            : Lossy
Stream size                 : 240 MiB (7%)
Title                       : iTunes
Language                    : Russian
Service kind                : Complete Main
Default                     : Yes
Forced                      : No

Audio #2
ID                          : 3
Format                      : AC-3
Format/Info                 : Audio Coding 3
Format settings, Endianness : Big
Codec ID                    : A_AC3
Duration                    : 1 h 27 min
Bit rate mode               : Constant
Bit rate                    : 384 kb/s
Channel(s)                  : 6 channels
Channel positions           : Front: L C R, Side: L R, LFE
Sampling rate               : 48.0 kHz
Frame rate                  : 31.250 FPS (1536 SPF)
Bit depth                   : 16 bits
Compression mode            : Lossy
Stream size                 : 240 MiB (7%)
Title                       : Original
Language                    : English
Service kind                : Complete Main
Default                     : No
Forced                      : No

Text
ID                          : 4
Format                      : UTF-8
Codec ID                    : S_TEXT/UTF8
Codec ID/Info               : UTF-8 Plain Text
Duration                    : 1 h 21 min
Bit rate                    : 40 b/s
Count of elements           : 776
Stream size                 : 24.1 KiB (0%)
Title                       : Full
Language                    : English
Default                     : No
Forced                      : No

Menu
00:00:00.000                : en:1
00:09:27.000                : en:2
00:19:44.000                : en:3
00:28:20.000                : en:4
00:36:35.000                : en:5
00:47:52.000                : en:6
00:58:57.000                : en:7
01:06:56.000                : en:8
01:16:29.000                : en:9
01:27:54.000                : en:10



Скриншоты:
[+] Всего файлов в раздаче - 1:
Amityville.The.Awakening.2017.WEB-DL.1080p.ExKinoRay.mkv3.27 GB

Текущая раздача:
ДатаКомментарии    РазмерПиры
2017-11-10 U Ужас Амитивилля: Пробуждение / Amityville: The Awakening (2017) WEB-DL 1080p от ExKinoRay | iTunes 3.27 GB ↑ 105 ↓ 70

Показать еще раздачи по запросу ужас:
2017-11-17 U Ужас Амитивилля: Пробуждение / Amityville: The Awakening (2017) HDRip от MegaPeer | iTunes 1.37 GB ↑ 21 ↓ 9
2017-11-15 U Ужас Амитивилля: Пробуждение / Amityville: The Awakening (2017) BDRip 1080p | iTunes 7.18 GB ↑ 88 ↓ 66
2017-11-15 U Ужас Амитивилля: Пробуждение / Amityville: The Awakening (2017) BDRip 720p | iTunes 4.60 GB ↑ 47 ↓ 63
2017-11-11 U Ужас Амитивилля: Пробуждение / Amityville: The Awakening (2017) WEB-DLRip-AVC от ExKinoRay | iTunes 746.55 MB ↑ 94 ↓ 23
2017-11-10 U Ужас Амитивилля: Пробуждение / Amityville: The Awakening (2017) WEB-DLRip-AVC от OlLanDGroup | iTunes 1.25 GB ↑ 175 ↓ 52
2017-11-10 U Ужас Амитивилля: Пробуждение / Amityville: The Awakening (2017) WEB-DLRip от MegaPeer | iTunes 1.43 GB ↑ 73 ↓ 47
2017-11-09 U Ужас Амитивилля: Пробуждение / Amityville: The Awakening (2017) WEB-DLRip | L 1.09 GB ↑ 147 ↓ 56

Отзывы
Зарегистрируйтесь чтобы добавить комментарий.
Обратная связь
Copyleft ©