↑↓Torrent.by
Поиск
Логин: Регистрация
Пароль: Восстановить пароль
Загрузка...

Взрывная блондинка / Atomic Blonde (2017) HDRip-AVC от ExKinoRay | iTunes, L

Скачать vzryvnaya-blondinka-atomic-blonde-2017-hdrip-avc-ot-exkinoray-itunes-l.torrent
U Магнитная ссылка Размер: 2.36 GB Раздают: 54 Качают: 14 Добавлен: 2017-11-10 05:38:46
Взрывная блондинка / Atomic Blonde (2017) HDRip-AVC от ExKinoRay | iTunes, L

Информация о фильме
Название: Взрывная блондинка
Оригинальное название: Atomic Blonde
Год выпуска: 2017
Жанр: Боевик, триллер, детектив
Режиссер: Дэвид Литч
В ролях: Шарлиз Терон, Джеймс МакЭвой, Эдди Марсан, Джон Гудмен, Тоби Джонс, Джеймс Фолкнер, Роланд Мёллер, София Бутелла, Билл Скарсгард, Сэм Харгрейв

Описание: Агент Лоррейн Бротон, бриллиант в короне Секретной разведывательной службы Ее Величества, не просто мастер шпионажа: она бомбически сексуальна, взрывоопасна и использует весь арсенал своих уникальных умений во время невыполнимых миссий. В неспокойном Берлине, куда ее направляют с заданием вернуть бесценное досье, она вынуждена объединиться с агентом под прикрытием Дэвидом Персивалем. Вместе им предстоит проложить путь через тернии смертельных шпионских игр…

Страна: США
Студия: 87Eleven, Closed on Mondays Entertainment, Denver and Delilah Productions, Film i Väst 5. Focus Features, Sierra Pictures (III), T.G.I.M Films
Продолжительность: 01:54:44
Перевод: Дублированный | iTunes / Любительский (многоголосый, закадровый) Paradox & Omskbird records (полный перевод)

Файл
Формат: MKV
Качество: HDRip-AVC
Видео: AVC, 1024х428 (2.40:1), 1925 kbps, 23,976 fps, 0,183 bpp
Аудио 1: 48 kHz, AC3, 5.1, 384 Kbps | RUS | iTunes
Аудио 2: 48 kHz, AC3, 2.0, 192 Kbps | RUS |
Аудио 3: 48 kHz, AC3, 5.1, 448 Kbps | ENG |
Субтитры: Русские (форсированные) на немецкую речь, английские

Релиз:

Автор релиза:


[+] МИ
General
Unique ID                                : 230558522368331381856146055615873760373 (0xAD73F4CA972549109C7F33A2431B3C75)
Complete name                            : D:Atomic.Blonde.2017.2xRus.HDRip.AVC.ExKinoRay.mkv
Format                                   : Matroska
Format version                           : Version 2
File size                                : 2.36 GiB
Duration                                 : 1 h 54 min
Overall bit rate                         : 2 951 kb/s
Movie name                               : Atomic Blonde 2017 from ExKinoRay
Encoded date                             : UTC 2017-11-07 01:34:44
Writing application                      : mkvmerge v5.6.0 ('Kenya Kane') built on May 27 2012 16:44:04
Writing library                          : libebml v1.2.3 + libmatroska v1.3.0

Video
ID                                       : 1
Format                                   : AVC
Format/Info                              : Advanced Video Codec
Format profile                           : High@L4.1
Format settings, CABAC                   : Yes
Format settings, ReFrames                : 12 frames
Codec ID                                 : V_MPEG4/ISO/AVC
Duration                                 : 1 h 54 min
Bit rate                                 : 1 925 kb/s
Width                                    : 1 024 pixels
Height                                   : 428 pixels
Display aspect ratio                     : 2.40:1
Frame rate mode                          : Constant
Frame rate                               : 23.976 (23976/1000) FPS
Color space                              : YUV
Chroma subsampling                       : 4:2:0
Bit depth                                : 8 bits
Scan type                                : Progressive
Bits/(Pixel*Frame)                       : 0.183
Stream size                              : 1.50 GiB (63%)
Title                                    : Enigma
Writing library                          : x264 core 152 r2851 ba24899
Encoding settings                        : cabac=1 / ref=12 / deblock=1:-3:-3 / analyse=0x3:0x113 / me=umh / subme=10 / psy=1 / psy_rd=1.00:0.07 / mixed_ref=1 / me_range=32 / chroma_me=1 / trellis=2 / 8x8dct=1 / cqm=0 / deadzone=21,11 / fast_pskip=1 / chroma_qp_offset=-3 / threads=12 / lookahead_threads=3 / sliced_threads=0 / nr=0 / decimate=0 / interlaced=0 / bluray_compat=0 / constrained_intra=0 / bframes=11 / b_pyramid=2 / b_adapt=2 / b_bias=0 / direct=3 / weightb=1 / open_gop=0 / weightp=2 / keyint=240 / keyint_min=23 / scenecut=40 / intra_refresh=0 / rc_lookahead=40 / rc=2pass / mbtree=0 / bitrate=1925 / ratetol=1.0 / qcomp=0.62 / qpmin=0 / qpmax=51 / qpstep=4 / cplxblur=20.0 / qblur=0.5 / vbv_maxrate=50000 / vbv_bufsize=62500 / nal_hrd=none / filler=0 / ip_ratio=1.40 / pb_ratio=1.30 / aq=3:0.80
Language                                 : English
Default                                  : Yes
Forced                                   : No
Color range                              : Limited
Color primaries                          : BT.709
Transfer characteristics                 : BT.709
Matrix coefficients                      : BT.709

Audio #1
ID                                       : 2
Format                                   : AC-3
Format/Info                              : Audio Coding 3
Mode extension                           : CM (complete main)
Format settings, Endianness              : Big
Codec ID                                 : A_AC3
Duration                                 : 1 h 54 min
Bit rate mode                            : Constant
Bit rate                                 : 384 kb/s
Channel(s)                               : 6 channels
Channel positions                        : Front: L C R, Side: L R, LFE
Sampling rate                            : 48.0 kHz
Frame rate                               : 31.250 FPS (1536 spf)
Compression mode                         : Lossy
Stream size                              : 315 MiB (13%)
Title                                    : iTunes
Language                                 : Russian
Default                                  : Yes
Forced                                   : No

Audio #2
ID                                       : 3
Format                                   : AC-3
Format/Info                              : Audio Coding 3
Mode extension                           : CM (complete main)
Format settings, Endianness              : Big
Codec ID                                 : A_AC3
Duration                                 : 1 h 54 min
Bit rate mode                            : Constant
Bit rate                                 : 192 kb/s
Channel(s)                               : 2 channels
Channel positions                        : Front: L R
Sampling rate                            : 48.0 kHz
Frame rate                               : 31.250 FPS (1536 spf)
Compression mode                         : Lossy
Stream size                              : 158 MiB (7%)
Title                                    : MVO
Language                                 : Russian
Default                                  : No
Forced                                   : No

Audio #3
ID                                       : 4
Format                                   : AC-3
Format/Info                              : Audio Coding 3
Mode extension                           : CM (complete main)
Format settings, Endianness              : Big
Codec ID                                 : A_AC3
Duration                                 : 1 h 54 min
Bit rate mode                            : Constant
Bit rate                                 : 448 kb/s
Channel(s)                               : 6 channels
Channel positions                        : Front: L C R, Side: L R, LFE
Sampling rate                            : 48.0 kHz
Frame rate                               : 31.250 FPS (1536 spf)
Compression mode                         : Lossy
Stream size                              : 368 MiB (15%)
Language                                 : English
Default                                  : No
Forced                                   : No

Text #1
ID                                       : 5
Format                                   : UTF-8
Codec ID                                 : S_TEXT/UTF8
Codec ID/Info                            : UTF-8 Plain Text
Title                                    : Forced
Language                                 : Russian
Default                                  : Yes
Forced                                   : Yes

Text #2
ID                                       : 6
Format                                   : UTF-8
Codec ID                                 : S_TEXT/UTF8
Codec ID/Info                            : UTF-8 Plain Text
Language                                 : English
Default                                  : No
Forced                                   : No

Menu
00:00:00.000                             : en:00:00:00.000
00:06:47.991                             : en:00:06:47.991
00:11:03.162                             : en:00:11:03.162
00:18:17.221                             : en:00:18:17.221
00:24:15.579                             : en:00:24:15.579
00:27:47.165                             : en:00:27:47.165
00:32:50.010                             : en:00:32:50.010
00:36:20.095                             : en:00:36:20.095
00:40:46.152                             : en:00:40:46.152
00:47:55.664                             : en:00:47:55.664
00:53:13.482                             : en:00:53:13.482
00:59:54.090                             : en:00:59:54.090
01:03:32.767                             : en:01:03:32.767
01:08:03.788                             : en:01:08:03.788
01:10:52.415                             : en:01:10:52.415
01:18:27.453                             : en:01:18:27.453
01:24:28.272                             : en:01:24:28.272
01:32:44.267                             : en:01:32:44.267
01:42:06.245                             : en:01:42:06.245
01:48:21.078                             : en:01:48:21.078




Скриншоты:
[+] Всего файлов в раздаче - 1:
Atomic.Blonde.2017.2xRus.HDRip.AVC.ExKinoRay.mkv2.36 GB

Текущая раздача:
ДатаКомментарии    РазмерПиры
2017-11-10 U Взрывная блондинка / Atomic Blonde (2017) HDRip-AVC от ExKinoRay | iTunes, L 2.36 GB ↑ 54 ↓ 14

Показать еще раздачи по запросу взрывная:
2017-11-17 U Взрывная блондинка / Atomic Blonde (2017) BDRip-AVC | iTunes 745.00 MB ↑ 54 ↓ 19
2017-11-12 U Взрывная блондинка / Atomic Blonde (2017) BDRip-HEVC 1080p от ХиМиК | iTunes 4.16 GB ↑ 90 ↓ 36
2017-11-11 U Взрывная блондинка / Atomic Blonde (2017) BDRip-AVC от k.e.n & MegaPeer | D 1.46 GB ↑ 150 ↓ 34
2017-11-11 U Взрывная блондинка / Atomic Blonde (2017) BDRip-HEVC 1080p от HEVC CLUB | iTunes 2К5.50 GB ↑ 132 ↓ 79
2017-11-07 U Взрывная блондинка / Atomic Blonde (2017) BDRip от MegaPeer | iTunes 1.41 GB ↑ 319 ↓ 134
2017-11-07 U Взрывная блондинка / Atomic Blonde (2017) BDRip 1080p от New-Team & qqss44 | iTunes 7.55 GB ↑ 168 ↓ 175
2017-11-07 U Взрывная блондинка / Atomic Blonde (2017) BDRemux 1080p от ExKinoRay | D 30.34 GB ↑ 49 ↓ 27

Отзывы
Зарегистрируйтесь чтобы добавить комментарий.
Обратная связь
Copyleft ©