↑↓Torrent.by
Поиск
Логин: Регистрация
Пароль: Восстановить пароль
Загрузка...

Патти Кейкс / Patti Cake$ (2017) WEBRip | L2

Скачать patti-keyks-cake-2017-webrip-l2.torrent
U Магнитная ссылка Размер: 1.36 GB Раздают: 42 Качают: 18 Добавлен: 2017-11-10 05:38:56
Патти Кейкс / Patti Cake$ (2017) WEBRip | L2

Название: Патти Кейкс
Оригинальное название: Patti Cake$

Год выхода: 2017
Жанр: Драма
Режиссер: Джереми Джаспер
В ролях: Даниэль МакДональд, Бриджет Эверетт, Siddharth Dhananjay, Мамуду Ати, Кэти Мориарти, МакКаул Ломбарди, Патрик Брана, Дилан Блу, Уоррен Буб, Mackenzie Grace Castle и другие
О фильме:
История Патрисии Дамбровски — полной белой девушки из маленького городка в Джерси, мечтающей о славе рэперши. Жизнь Патрисии разваливается, на плечах мамины неудачи и несчастья, а единственный, кто верит в талант девушки — её бабушка.

Страна: США, Department of Motion Pictures, The, RT Features
Продолжительность: 01:49:27
Перевод: Любительский (двухголосый закадровый) | RecentFilms

Файл
Кодек: XviD
Качество: WEBRip
Видео: 720x384 , 23,976 fps, ~1580 Kbps, 0.24 bit/pixel
Звук:
Аудио rus: AC3, 48 kHz, 2 ch, 192 Kbps
Субтитры: отсутствуют

Реклама: присутствует

Семпл

Релиз от: RecentFilms


[+] MediaInfo:

General
Complete name                            : F:FilmsPatti.Cakes.2017.WEBRip.RecentFilmsPatti.Cakes.2017.WEBRip.RecentFilms.avi
Format                                   : AVI
Format/Info                              : Audio Video Interleave
File size                                : 1.36 GiB
Duration                                 : 1h 49mn
Overall bit rate                         : 1 782 Kbps
Writing application                      : VirtualDubMod 1.5.10.2 (build 2540/release)
Writing library                          : VirtualDubMod build 2540/release

Video
ID                                       : 0
Format                                   : MPEG-4 Visual
Format profile                           : Advanced Simple@L5
Format settings, BVOP                    : 1
Format settings, QPel                    : No
Format settings, GMC                     : No warppoints
Format settings, Matrix                  : Default (H.263)
Codec ID                                 : XVID
Codec ID/Hint                            : XviD
Duration                                 : 1h 49mn
Bit rate                                 : 1 581 Kbps
Width                                    : 720 pixels
Height                                   : 384 pixels
Display aspect ratio                     : 1.85:1
Frame rate                               : 23.976 (24000/1001) fps
Color space                              : YUV
Chroma subsampling                       : 4:2:0
Bit depth                                : 8 bits
Scan type                                : Progressive
Compression mode                         : Lossy
Bits/(Pixel*Frame)                       : 0.238
Stream size                              : 1.21 GiB (89%)
Writing library                          : XviD 67

Audio
ID                                       : 1
Format                                   : AC-3
Format/Info                              : Audio Coding 3
Mode extension                           : CM (complete main)
Format settings, Endianness              : Big
Codec ID                                 : 2000
Duration                                 : 1h 49mn
Bit rate mode                            : Constant
Bit rate                                 : 192 Kbps
Channel(s)                               : 2 channels
Channel positions                        : Front: L R
Sampling rate                            : 48.0 KHz
Frame rate                               : 31.250 fps (1536 spf)
Compression mode                         : Lossy
Stream size                              : 150 MiB (11%)
Alignment                                : Split accross interleaves
Interleave, duration                     : 42 ms (1.00 video frame)
Interleave, preload duration             : 500 ms




Скриншоты:
[+] Всего файлов в раздаче - 1:
Patti.Cakes.2017.WEBRip.RecentFilms.avi1.36 GB

Текущая раздача:
ДатаКомментарии    РазмерПиры
2017-11-10 U Патти Кейкс / Patti Cake$ (2017) WEBRip | L2 1.36 GB ↑ 42 ↓ 18

Похожие раздачи по запросу - патти:
2016-08-19 U 21 ночь с Патти / 21 Nights with Pattie (2015) BDRip | A 1.46 GB ↑ 116 ↓ 35

Отзывы
Зарегистрируйтесь чтобы добавить комментарий.
Обратная связь
Copyleft ©