↑↓Torrent.by
Поиск
Логин: Регистрация
Пароль: Восстановить пароль
Загрузка...

Моя милая Одрина / My Sweet Audrina (2016) HDTVRip 720p | L2

Скачать moya-milaya-odrina-my-sweet-audrina-2016-hdtvrip-720p-l2.torrent
U Магнитная ссылка Размер: 1.88 GB Раздают: 43 Качают: 9 Добавлен: 2017-11-10 05:39:08
Моя милая Одрина / My Sweet Audrina (2016) HDTVRip 720p | L2

Название: Моя милая Одрина
Оригинальное название: My Sweet Audrina
Год выхода: 2016
Жанр: триллер, драма
Режиссер: Майк Рол
В ролях: Индиа Айсли, Уильям Моусли, Джеймс Таппер, Тесс Аткинс, Кирстен Робек, Дженнифер Коппинг, Кейси Рол, Фаррин ВанХамбек, Мэтт Андерсон, Сет Исаак Джонсон

О фильме:
Одрина очень любила гулять по лесу. Правда ее родители почему-то крайне редко ей это позволяли, и то почти никогда не оставляли дочь без присмотра за пределами стен огромного родового поместья. В котором девочке было откровенно скучно — только был и бесконечные лабиринты пустых комнат и переходов. К тому же по непонятным причинам она не могла преодолеть свою тягу к лесу, которая воодушевляла и пугала одновременно. Но кроме чрезмерного пристрастия к прогулкам на свежем воздухе еще одна вещь тревожила Одрину — маленькая девочка, которая постоянно приходила в кошмарных снах и редких видениях. И постоянно звала и тянула куда-то свою знакомую, пытаясь раскрыть ей какой-то важный секрет… Пытаясь раскрыть который девушка открывает шокирующую тайну — она не единственная дочь у своих родителей. Много лет назад ее старшая сестра, которую звали так же, погибла при странных и невыясненных обстоятельствах в соседнем лесу. После чего мама девочки, которая как раз оказалась беременной вторым ребенком, поклялась никогда не открывать своей дочери правду, назвав ее «Моя милая Одрина» в честь погибшего ребенка…

Страна: США
Студия: A+E Studios, Audrina Road Productions, EveryWhere Studios, Jane Startz Productions
Продолжительность: 01:25:20
Перевод: Любительский двухголосный, закадровый [datynet & Galina Vasyukova; перевод: Куценко]

Файл
Кодек: H.264
Качество: HDTVRip 720p
Видео: AVC, 1280x720 (16:9), 23.976 fps ~ 2895 Kbps
Звук: MP3, 48 KHz, 2 ch ~ 192 Kb/s
Субтитры: отсутствуют

Семпл


[+] MI:

Общее
Уникальный идентификатор : 248060081597014055046298708952886715243 (0xBA9EA24848FC1D1390F75BFEC262A36B)
Полное имя : Q:TorFmy.sweet.audrina.2016.mkv
Формат : Matroska
Версия формата : Version 4 / Version 2
Размер файла : 1,88 Гбайт
Продолжительность : 1 ч. 25 м.
Общий поток : 3151 Кбит/сек
Дата кодирования : UTC 2017-04-07 17:05:37
Программа кодирования : mkvmerge v9.6.0 ('Slave To Your Mind') 64bit
Библиотека кодирования : libebml v1.3.4 + libmatroska v1.4.5
DURATION : 01:25:21.048000000
NUMBER_OF_FRAMES : 213377
NUMBER_OF_BYTES : 122905152
_STATISTICS_WRITING_APP : mkvmerge v9.6.0 ('Slave To Your Mind') 64bit
_STATISTICS_WRITING_DATE_UTC : 2017-04-07 17:05:37
_STATISTICS_TAGS : BPS DURATION NUMBER_OF_FRAMES NUMBER_OF_BYTES

Видео
Идентификатор : 1
Формат : AVC
Формат/Информация : Advanced Video Codec
Профиль формата : High@L4.1
Параметр CABAC формата : Да
Параметр ReFrames формата : 5 кадров
Идентификатор кодека : V_MPEG4/ISO/AVC
Продолжительность : 1 ч. 25 м.
Битрейт : 2896 Кбит/сек
Ширина : 1280 пикселей
Высота : 720 пикселей
Соотношение сторон : 16:9
Частота кадров : 23,976 кадра/сек
Цветовое пространство : YUV
Субдискретизация насыщенности : 4:2:0
Битовая глубина : 8 бит
Тип развёртки : Прогрессивная
Бит/(Пиксели*Кадры) : 0.131
Размер потока : 1,73 Гбайт (92%)
Библиотека кодирования : x264 core 148 r2638 7599210
Настройки программы : cabac=1 / ref=5 / deblock=1:0:0 / analyse=0x3:0x113 / me=umh / subme=8 / psy=1 / psy_rd=1.00:0.00 / mixed_ref=1 / me_range=16 / chroma_me=1 / trellis=1 / 8x8dct=1 /

cqm=0 / deadzone=21,11 / fast_pskip=1 / chroma_qp_offset=-2 / threads=12 / lookahead_threads=2 / sliced_threads=0 / nr=0 / decimate=1 / interlaced=0 / bluray_compat=0 / constrained_intra=0 /

bframes=3 / b_pyramid=2 / b_adapt=2 / b_bias=0 / direct=3 / weightb=1 / open_gop=0 / weightp=2 / keyint=250 / keyint_min=25 / scenecut=40 / intra_refresh=0 / rc_lookahead=50 / rc=crf / mbtree=1 /

crf=18.0 / qcomp=0.60 / qpmin=0 / qpmax=69 / qpstep=4 / ip_ratio=1.40 / aq=1:1.00
Default : Да
Forced : Нет

Аудио
Идентификатор : 2
Формат : MPEG Audio
Версия формата : Version 1
Профиль формата : Layer 3
Идентификатор кодека : A_MPEG/L3
Идентификатор кодека/Подсказка : MP3
Продолжительность : 1 ч. 25 м.
Вид битрейта : Постоянный
Битрейт : 192 Кбит/сек
Каналы : 2 канала
Частота : 48,0 КГц
Метод сжатия : С потерями
Размер потока : 117 Мбайт (6%)
Default : Да
Forced : Нет



Скриншоты:
[+] Всего файлов в раздаче - 1:
my.sweet.audrina.2016.mkv1.88 GB

Текущая раздача:
ДатаКомментарии    РазмерПиры
2017-11-10 U Моя милая Одрина / My Sweet Audrina (2016) HDTVRip 720p | L2 1.88 GB ↑ 43 ↓ 9

Похожие раздачи по запросу - милая:
2017-03-09 U Сборник - Милая, единственная, нежная! (2017) MP3 749.70 MB ↑ 139 ↓ 20
2016-01-18 U VA - Милая Моя Родная. Музыка Для Души (2016) MP3 915.68 MB ↑ 176 ↓ 71
2014-11-04 U Сборник - Милая девочка. Душевный шансон (2014) MP3 702.98 MB ↑ 1729 ↓ 2
2013-12-31 U Милая Фрэнсис / Frances Ha (2012) HDRip 1.36 GB ↑ 603 ↓ 65505
2013-11-26 U Доктор Джекилл и милая дама / Dottor Jekyll e gentile signora (1979) DVDRip | A 1.46 GB ↑ 59 ↓ 31

Отзывы
Зарегистрируйтесь чтобы добавить комментарий.
Обратная связь
Copyleft ©