↑↓Torrent.by
Поиск
Логин: Регистрация
Пароль: Восстановить пароль
Загрузка...

Поднятая целина (1959-1961) DVDRip-AVC от New-Team

Скачать podnyataya-celina-1959-1961-dvdrip-avc-ot-new-team.torrent
U Магнитная ссылка Размер: 3.72 GB Раздают: 71 Качают: 19 Добавлен: 2017-11-10 05:39:51
Поднятая целина (1959-1961) DVDRip-AVC от New-Team

Страна: СССР
Производство: Ленфильм

Жанр:  драма
Год выпуска: 1959-1961
Продолжительность: 04:45:31 (01:29:35 + 01:35:24 + 01:40:32)

Перевод: не требуется
Субтитры: нет
Оригинальная аудиодорожка: русский

Режиссер: Александр Иванов

В ролях:
Пётр Чернов, Евгений Матвеев, Фёдор Шмаков, Владимир Дорофеев, Людмила Хитяева, Пётр Глебов, Виктор Чекмарёв, Иосиф Кутянский, Леонид Кмит, Олег Ярошенко, Николай Крючков, Андрей Абрикосов...
Полный список актёров

Описание:
Режиссер собрал в картине поистине звездный ансамбль - Евгений Матвеев, Петр Глебов, Игорь Дмитриев, Евгений Лебедев, Николай Крючков, Людмила Хитяева, - что сделало фильм лидером проката 1960 года (30,2 млн зрителей). И сегодня зрителя захватывает накал страстей, глубина характеров и прекрасная игра актеров, из которых хочется особенно выделить Евгения Матвеева. Его Макар Нагульнов стал поистине народным героем и всеобщим любимцем.

[+] MediaInfo

Общее
Полное имя                               : Podnyataya.celina.1959.DVDRip-AVC_[New-team]_by_AVP_StudioСерия 03.mkv
Формат                                   : Matroska
Версия формата                           : Version 2
Размер файла                             : 1,31 Гбайт
Продолжительность                        : 1 ч. 40 м.
Общий поток                              : 1863 Кбит/сек
Дата кодирования                         : UTC 2017-11-08 20:37:04
Программа кодирования                    : mkvmerge v6.1.0 ('Old Devil') built on Mar  4 2013 09:10:42
Библиотека кодирования                   : libebml v1.3.0 + libmatroska v1.4.0

Видео
Идентификатор                            : 1
Формат                                   : AVC
Формат/Информация                        : Advanced Video Codec
Профиль формата                          : High@L4.1
Параметр CABAC формата                   : Да
Параметр RefFrames формата               : 10 кадров
Идентификатор кодека                     : V_MPEG4/ISO/AVC
Продолжительность                        : 1 ч. 40 м.
Битрейт                                  : 1669 Кбит/сек
Ширина                                   : 688 пикселей
Высота                                   : 570 пикселей
Соотношение сторон                       : 4:3
Режим частоты кадров                     : Постоянный
Частота кадров                           : 25,000 кадров/сек
Цветовое пространство                    : YUV
Субдискретизация насыщенности            : 4:2:0
Битовая глубина                          : 8 бит
Тип развёртки                            : Прогрессивная
Бит/(Пиксели*Кадры)                      : 0.170
Размер потока                            : 1,15 Гбайт (88%)
Библиотека кодирования                   : x264 core 130 r2273 b3065e6
Настройки программы                      : cabac=1 / ref=10 / deblock=1:-2:-1 / analyse=0x3:0x113 / me=umh / subme=10 / psy=1 / psy_rd=1.00:0.00 / mixed_ref=1 / me_range=32 / chroma_me=1 / trellis=2 / 8x8dct=1 / cqm=0 / deadzone=21,11 / fast_pskip=1 / chroma_qp_offset=-2 / threads=6 / lookahead_threads=1 / sliced_threads=0 / nr=0 / decimate=0 / interlaced=0 / bluray_compat=0 / constrained_intra=0 / bframes=8 / b_pyramid=2 / b_adapt=2 / b_bias=0 / direct=3 / weightb=1 / open_gop=0 / weightp=2 / keyint=250 / keyint_min=25 / scenecut=40 / intra_refresh=0 / rc=2pass / mbtree=0 / bitrate=1669 / ratetol=1.0 / qcomp=0.60 / qpmin=0 / qpmax=69 / qpstep=4 / cplxblur=20.0 / qblur=0.5 / ip_ratio=1.40 / pb_ratio=1.30 / aq=1:1.00
Default                                  : Да
Forced                                   : Нет

Аудио
Идентификатор                            : 2
Формат                                   : AC-3
Формат/Информация                        : Audio Coding 3
Параметр Endianness формата              : Big
Идентификатор кодека                     : A_AC3
Продолжительность                        : 1 ч. 40 м.
Вид битрейта                             : Постоянный
Битрейт                                  : 192 Кбит/сек
Каналы                                   : 2 канала
Расположение каналов                     : Front: L R
Частота                                  : 48,0 КГц
Частота кадров                           : 31,250 кадров/сек (1536 SPF)
Битовая глубина                          : 16 бит
Метод сжатия                             : С потерями
Размер потока                            : 138 Мбайт (10%)
Default                                  : Да
Forced                                   : Нет



Скриншоты:
[+] Всего файлов в раздаче - 3:
Серия 01.mkv1.17 GB
Серия 02.mkv1.24 GB
Серия 03.mkv1.31 GB

Отзывы
Зарегистрируйтесь чтобы добавить комментарий.
Обратная связь
Copyleft ©