↑↓Torrent.by
Поиск
Логин: Регистрация
Пароль: Восстановить пароль
Загрузка...

Ужас Амитивилля: Пробуждение / Amityville: The Awakening (2017) WEB-DLRip-AVC от OlLanDGroup | iTunes

Скачать uzhas-amitivillya-probuzhdenie-amityville-the-awakening-2017-web-dlrip-avc-ot-ollandgroup-itunes.torrent
U Магнитная ссылка Размер: 1.25 GB Раздают: 171 Качают: 52 Добавлен: 2017-11-10 14:51:01
Ужас Амитивилля: Пробуждение / Amityville: The Awakening (2017) WEB-DLRip-AVC от OlLanDGroup | iTunes

Ужас Амитивилля: Пробуждение / Amityville: The Awakening
«У каждого дома есть история. У этого – страшная тайна»

Год выпуска: 2017
Страна: США
Производство: Blumhouse Productions, Dimension Films, Miramax, Panic Ventures
Жанр:  Ужасы, триллер

Режиссёр: Франк Халфун
В ролях: Белла Торн, Кэмерон Монахэн, Дженнифер Джейсон Ли, Маккенна Грэйс, Дженнифер Моррисон, Томас Манн, Кертвуд Смит, Тейлор Спрейтлер, Ава Сантана, Хантер Голигоски

Перевод: Дублированный | iTunes
Субтитры: Английские
Реклама: Отсутствует

Описание: В семье Белль (Белла Торн) случается несчастье - её младший брат впадает в кому. Из-за нехватки средств на лечение, её мать-одиночка Джоанн (Дженифер Джейсон Ли) принимает решение переехать в новый дом, который на порядок дешевле. Если поначалу такой шаг кажется оправданным, то последующие события заставляют Белль усомниться в правильности принятого решения. Неожиданное выздоровление брата при странных обстоятельствах было лишь началом в череде жутких сюрпризов, которые сопровождали это «новоселье». Белль начинает подозревать, что мать рассказала им об этом доме не всё, и вскоре понимает, что они переехали не куда-нибудь, а в тот самый Амитивилль.

Качество: WEB-DLRip-AVC
Продолжительность: 01:27:20

Формат: MKV
Видео кодек: MPEG-4 AVC
Аудио кодек: AC3
Видео: 1024x436 (2.40:1), 23,976 fps, x264 ~1272 kbps avg, 0.119 bit/pixel
Аудио #1: 48 kHz, AC3 Dolby Digital, 3/2 (L,C,R,l,r) + LFE ch, ~384.00 kbps avg | RUS (iTunes)
Аудио #2: 48 kHz, AC3 Dolby Digital, 3/2 (L,C,R,l,r) + LFE ch, ~384.00 kbps avg | ENG

Дата премьеры (мир): 10 марта 2017
Дата премьеры (РФ): 20 июля 2017, «MEGOGO Distribution»

Релиз: Rip by:


[+] MediaInfo

Общее
Уникальный идентификатор                 : 217695362614452475805591656466433076220 (0xA3C69A0D08004779919FBD168B226BFC)
Полное имя                               : E:OlLanDGroupAmityville.The.Awakening.2017.WEB-DLRip(AVC).OlLanDGroup.mkv
Формат                                   : Matroska
Версия формата                           : Version 2
Размер файла                             : 1,25 Гбайт
Продолжительность                        : 1 ч. 27 м.
Общий поток                              : 2042 Кбит/сек
Название фильма                          :    #TorpedoUK#
Дата кодирования                         : UTC 2017-11-10 01:46:59
Программа кодирования                    : mkvmerge v7.8.0 ('River Man') 32bit built on Apr  3 2015 12:11:22
Библиотека кодирования                   : libebml v1.3.1 + libmatroska v1.4.2
Обложка                                  : Yes
Attachments                              : cover_land.jpg / small_cover.jpg / small_cover_land.jpg / cover.jpg

Видео
Идентификатор                            : 1
Формат                                   : AVC
Формат/Информация                        : Advanced Video Codec
Профиль формата                          : High@L4.1
Параметр CABAC формата                   : Да
Параметр ReFrames формата                : 10 кадров
Идентификатор кодека                     : V_MPEG4/ISO/AVC
Продолжительность                        : 1 ч. 27 м.
Битрейт                                  : 1272 Кбит/сек
Ширина                                   : 1024 пикселя
Высота                                   : 436 пикселей
Соотношение сторон                       : 2,35:1
Режим частоты кадров                     : Постоянный
Частота кадров                           : 23,976 (24000/1001) кадра/сек
Цветовое пространство                    : YUV
Субдискретизация насыщенности            : 4:2:0
Битовая глубина                          : 8 бит
Тип развёртки                            : Прогрессивная
Бит/(Пиксели*Кадры)                      : 0.119
Размер потока                            : 770 Мбайт (60%)
Библиотека кодирования                   : x264 core 146 r2538 121396c
Настройки программы                      : cabac=1 / ref=10 / deblock=1:-2:-3 / analyse=0x3:0x133 / me=umh / subme=11 / psy=1 / psy_rd=0.95:0.07 / mixed_ref=1 / me_range=48 / chroma_me=1 / trellis=2 / 8x8dct=1 / cqm=0 / deadzone=21,11 / fast_pskip=1 / chroma_qp_offset=-3 / threads=6 / lookahead_threads=1 / sliced_threads=0 / nr=0 / decimate=1 / interlaced=0 / bluray_compat=0 / constrained_intra=0 / bframes=10 / b_pyramid=2 / b_adapt=2 / b_bias=0 / direct=3 / weightb=1 / open_gop=0 / weightp=2 / keyint=240 / keyint_min=23 / scenecut=40 / intra_refresh=0 / rc_lookahead=40 / rc=2pass / mbtree=0 / bitrate=1272 / ratetol=1.0 / qcomp=0.60 / qpmin=0 / qpmax=69 / qpstep=4 / cplxblur=20.0 / qblur=0.5 / vbv_maxrate=50000 / vbv_bufsize=62500 / nal_hrd=none / filler=0 / ip_ratio=1.40 / pb_ratio=1.30 / aq=1:1.00
Язык                                     : English
Default                                  : Да
Forced                                   : Нет

Аудио #1
Идентификатор                            : 2
Формат                                   : AC-3
Формат/Информация                        : Audio Coding 3
Расширение режима                        : CM (complete main)
Параметр Endianness формата              : Big
Идентификатор кодека                     : A_AC3
Продолжительность                        : 1 ч. 27 м.
Вид битрейта                             : Постоянный
Битрейт                                  : 384 Кбит/сек
Каналы                                   : 6 каналов
Расположение каналов                     : Front: L C R, Side: L R, LFE
Частота                                  : 48,0 КГц
Частота кадров                           : 31,250 кадров/сек (1536 spf)
Битовая глубина                          : 16 бит
Метод сжатия                             : С потерями
Размер потока                            : 240 Мбайт (19%)
Заголовок                                : iTunes
Язык                                     : Russian
Default                                  : Да
Forced                                   : Нет

Аудио #2
Идентификатор                            : 3
Формат                                   : AC-3
Формат/Информация                        : Audio Coding 3
Расширение режима                        : CM (complete main)
Параметр Endianness формата              : Big
Идентификатор кодека                     : A_AC3
Продолжительность                        : 1 ч. 27 м.
Вид битрейта                             : Постоянный
Битрейт                                  : 384 Кбит/сек
Каналы                                   : 6 каналов
Расположение каналов                     : Front: L C R, Side: L R, LFE
Частота                                  : 48,0 КГц
Частота кадров                           : 31,250 кадров/сек (1536 spf)
Битовая глубина                          : 16 бит
Метод сжатия                             : С потерями
Размер потока                            : 240 Мбайт (19%)
Заголовок                                : Original
Язык                                     : English
Default                                  : Нет
Forced                                   : Нет

Текст
Идентификатор                            : 4
Формат                                   : UTF-8
Идентификатор кодека                     : S_TEXT/UTF8
Идентификатор кодека/Информация          : UTF-8 Plain Text
Язык                                     : English
Default                                  : Нет
Forced                                   : Нет



Скриншоты:
[+] Всего файлов в раздаче - 1:
Amityville.The.Awakening.2017.WEB-DLRip(AVC).OlLanDGroup.mkv1.25 GB

Текущая раздача:
ДатаКомментарии    РазмерПиры
2017-11-10 U Ужас Амитивилля: Пробуждение / Amityville: The Awakening (2017) WEB-DLRip-AVC от OlLanDGroup | iTunes 1.25 GB ↑ 171 ↓ 52

Показать еще раздачи по запросу ужас:
2017-11-17 U Ужас Амитивилля: Пробуждение / Amityville: The Awakening (2017) HDRip от MegaPeer | iTunes 1.37 GB ↑ 20 ↓ 8
2017-11-15 U Ужас Амитивилля: Пробуждение / Amityville: The Awakening (2017) BDRip 1080p | iTunes 7.18 GB ↑ 86 ↓ 66
2017-11-15 U Ужас Амитивилля: Пробуждение / Amityville: The Awakening (2017) BDRip 720p | iTunes 4.60 GB ↑ 47 ↓ 63
2017-11-11 U Ужас Амитивилля: Пробуждение / Amityville: The Awakening (2017) WEB-DLRip-AVC от ExKinoRay | iTunes 746.55 MB ↑ 92 ↓ 23
2017-11-10 U Ужас Амитивилля: Пробуждение / Amityville: The Awakening (2017) WEB-DLRip от MegaPeer | iTunes 1.43 GB ↑ 73 ↓ 47
2017-11-10 U Ужас Амитивилля: Пробуждение / Amityville: The Awakening (2017) WEB-DL 1080p от ExKinoRay | iTunes 3.27 GB ↑ 99 ↓ 70
2017-11-09 U Ужас Амитивилля: Пробуждение / Amityville: The Awakening (2017) WEB-DLRip | L 1.09 GB ↑ 147 ↓ 56

Отзывы
Зарегистрируйтесь чтобы добавить комментарий.
Обратная связь
Copyleft ©