↑↓Torrent.by
Поиск
Логин: Регистрация
Пароль: Восстановить пароль
Загрузка...

Телохранитель киллера / The Hitman's Bodyguard (2017) BDRip 1080p от ExKinoRay | D, A | iTunes

Скачать telohranitel-killera-the-hitman-s-bodyguard-2017-bdrip-1080p-ot-exkinoray-d-a-itunes.torrent
U Магнитная ссылка Размер: 13.54 GB Раздают: 663 Качают: 703 Добавлен: 2017-11-11 09:56:08
Телохранитель киллера / The Hitman's Bodyguard (2017) BDRip 1080p от ExKinoRay | D, A | iTunes

Название: Телохранитель киллера
Оригинальное название: The Hitman's Bodyguard
Год выхода: 2017
Жанр: Боевик, комедия
Режиссер: Патрик Хьюз
В ролях: Райан Рейнольдс, Сэмюэл Л. Джексон, Элоди Юнг, Сальма Хайек, Гэри Олдман, Жоаки де Алмейда, Юрий Колокольников, Тине Жустра, Сэм Хэзелдайн, Ричард Э. Грант, Род Халлетт, Нуртье Херлар, Михаил Горевой, Кирсти Митчелл, Крис Брейзиер, Алан МакКенна, Жозефин де ла Буме, Ори Феффер, Александр Меркюри, Майкл Джинкс, Джастин Пирсон, Оуэн Дэвис

О фильме:
Он — телохранитель мирового уровня. Его новая работа — охранять киллера, которого все мечтают убить. Он и сам с удовольствием прикончил бы этого гада. Но работа есть работа: смертельные враги в прошлом, они вынуждены объединиться в настоящем, чтобы выжить. Однако их методы настолько различны, а принципы противоположны, что вопрос выживания — под большим вопросом.

Страна: США, Китай, Болгария, Нидерланды
Студия: Campbell Grobman Films, Cristal Pictures, East Light Media, Millennium Films
Продолжительность: 01:58:17
Перевод(ы):
#1: Дублированный | iTunes
#2: Авторский | Михаил Чадов

Файл
Качество: BDRip 1080p
Видео: MPEG-4 AVC, 1920x804, 15.0 Mbit/s, 23.976 fps
Звук:
Аудио #01: 48 kHz, AC3, 5.1, 384 Kbps | Дублированный | RUS |
Аудио #02: 48 kHz, AC3, 5.1, 384 Kbps | Авторский | RUS |
Аудио #03: 48 kHz, AC3, 5.1, 640 Kbps | Оригинал |  ENG |
Субтитры: Английские

Релиз: Автор релиза:


[+] MI
General
Unique ID                   : 186902244981264851577538504073814106664 (0x8C9C10229EC2B3D2994B72DD840E6228)
Complete name               : G:VideoSSDThe.Hitmans.BodyGuard.2017.BDRip.1080p.ExKinoRay.mkv
Format                      : Matroska
Format version              : Version 4 / Version 2
File size                   : 13.5 GiB
Duration                    : 1 h 58 min
Overall bit rate            : 16.4 Mb/s
Movie name                  : Release by ExKinoRay
Encoded date                : UTC 2017-11-10 19:16:59
Writing application         : mkvmerge v17.0.0 ('Be Ur Friend') 64-bit
Writing library             : libebml v1.3.5 + libmatroska v1.4.8

Video
ID                          : 1
Format                      : AVC
Format/Info                 : Advanced Video Codec
Format profile              : High@L4.1
Format settings             : CABAC / 5 Ref Frames
Format settings, CABAC      : Yes
Format settings, RefFrames  : 5 frames
Codec ID                    : V_MPEG4/ISO/AVC
Duration                    : 1 h 58 min
Bit rate                    : 15.0 Mb/s
Width                       : 1 920 pixels
Height                      : 804 pixels
Display aspect ratio        : 2.40:1
Frame rate mode             : Constant
Frame rate                  : 23.976 (24000/1001) FPS
Color space                 : YUV
Chroma subsampling          : 4:2:0
Bit depth                   : 8 bits
Scan type                   : Progressive
Bits/(Pixel*Frame)          : 0.405
Stream size                 : 12.4 GiB (91%)
Title                       : Medusa @ HDChina
Writing library             : x264 core 148 r2665kMod a01e339
Encoding settings           : cabac=1 / ref=5 / deblock=1:-3:-3 / analyse=0x3:0x133 / me=umh / subme=11 / psy=1 / fade_compensate=0.00 / psy_rd=0.85:0.00 / mixed_ref=1 / me_range=48 / chroma_me=1 / trellis=2 / 8x8dct=1 / cqm=0 / deadzone=21,11 / fast_pskip=0 / chroma_qp_offset=-2 / threads=24 / lookahead_threads=4 / sliced_threads=0 / nr=0 / decimate=0 / interlaced=0 / bluray_compat=0 / constrained_intra=0 / fgo=0 / bframes=8 / b_pyramid=2 / b_adapt=2 / b_bias=0 / direct=3 / weightb=1 / open_gop=0 / weightp=2 / keyint=240 / keyint_min=24 / scenecut=40 / intra_refresh=0 / rc=2pass / mbtree=0 / bitrate=15000 / ratetol=1.0 / qcomp=0.70 / qpmin=0 / qpmax=69 / qpstep=4 / cplxblur=20.0 / qblur=0.5 / ip_ratio=1.20 / pb_ratio=1.20 / aq=3:0.80
Language                    : English
Default                     : Yes
Forced                      : No

Audio #1
ID                          : 2
Format                      : AC-3
Format/Info                 : Audio Coding 3
Format settings, Endianness : Big
Codec ID                    : A_AC3
Duration                    : 1 h 58 min
Bit rate mode               : Constant
Bit rate                    : 384 kb/s
Channel(s)                  : 6 channels
Channel positions           : Front: L C R, Side: L R, LFE
Sampling rate               : 48.0 kHz
Frame rate                  : 31.250 FPS (1536 SPF)
Bit depth                   : 16 bits
Compression mode            : Lossy
Stream size                 : 325 MiB (2%)
Title                       : iTunes
Language                    : Russian
Service kind                : Complete Main
Default                     : Yes
Forced                      : No

Audio #2
ID                          : 3
Format                      : AC-3
Format/Info                 : Audio Coding 3
Format settings, Endianness : Big
Codec ID                    : A_AC3
Duration                    : 1 h 58 min
Bit rate mode               : Constant
Bit rate                    : 384 kb/s
Channel(s)                  : 6 channels
Channel positions           : Front: L C R, Side: L R, LFE
Sampling rate               : 48.0 kHz
Frame rate                  : 31.250 FPS (1536 SPF)
Bit depth                   : 16 bits
Compression mode            : Lossy
Stream size                 : 325 MiB (2%)
Title                       : AVO
Language                    : Russian
Service kind                : Complete Main
Default                     : No
Forced                      : No

Audio #3
ID                          : 4
Format                      : AC-3
Format/Info                 : Audio Coding 3
Format settings, Endianness : Big
Codec ID                    : A_AC3
Duration                    : 1 h 58 min
Bit rate mode               : Constant
Bit rate                    : 640 kb/s
Channel(s)                  : 6 channels
Channel positions           : Front: L C R, Side: L R, LFE
Sampling rate               : 48.0 kHz
Frame rate                  : 31.250 FPS (1536 SPF)
Bit depth                   : 16 bits
Compression mode            : Lossy
Stream size                 : 541 MiB (4%)
Title                       : Original
Language                    : English
Service kind                : Complete Main
Default                     : No
Forced                      : No

Text
ID                          : 5
Format                      : UTF-8
Codec ID                    : S_TEXT/UTF8
Codec ID/Info               : UTF-8 Plain Text
Duration                    : 1 h 56 min
Bit rate                    : 59 b/s
Count of elements           : 1486
Stream size                 : 51.0 KiB (0%)
Title                       : Full
Language                    : English
Default                     : No
Forced                      : No

Menu
00:00:00.000                : en:00:00:00.000
00:07:22.942                : en:00:07:22.942
00:13:53.875                : en:00:13:53.875
00:20:23.305                : en:00:20:23.305
00:27:20.138                : en:00:27:20.138
00:32:53.513                : en:00:32:53.513
00:38:25.428                : en:00:38:25.428
00:46:52.977                : en:00:46:52.977
00:56:39.354                : en:00:56:39.354
01:00:23.370                : en:01:00:23.370
01:09:11.397                : en:01:09:11.397
01:16:34.381                : en:01:16:34.381
01:21:11.241                : en:01:21:11.241
01:27:45.093                : en:01:27:45.093
01:35:06.743                : en:01:35:06.743
01:40:37.740                : en:01:40:37.740



[+] Примечание
В авторской озвучке присутствует ненормативная лексика. Будьте предельно осторожны!



Скриншоты:
[+] Всего файлов в раздаче - 1:
The.Hitmans.BodyGuard.2017.BDRip.1080p.ExKinoRay.mkv13.54 GB

Текущая раздача:
ДатаКомментарии    РазмерПиры
2017-11-11 U Телохранитель киллера / The Hitman's Bodyguard (2017) BDRip 1080p от ExKinoRay | D, A | iTunes 13.54 GB ↑ 663 ↓ 703

Показать еще раздачи по запросу телохранитель:
Сегодня U Телохранитель киллера / The Hitman's Bodyguard (2017) BDRip-HEVC 1080p от HEVC CLUB | iTunes 6.61 GB ↑ 65 ↓ 20
2017-11-20 U Телохранитель киллера / The Hitman's Bodyguard (2017) BDRip 1080p от New-Team & qqss44 | iTunes 7.52 GB ↑ 157 ↓ 152
2017-11-20 U Телохранитель киллера / The Hitman's Bodyguard (2017) BDRip 720p от HELLYWOOD | iTunes 1К4.31 GB ↑ 83 ↓ 62
2017-11-20 U Телохранитель киллера / The Hitman's Bodyguard (2017) BDRip-AVC от HELLYWOOD | iTunes 1.41 GB ↑ 51 ↓ 21
2017-11-19 U Телохранитель киллера / The Hitman's Bodyguard (2017) BDRemux 1080p | iTunes 32.60 GB ↑ 151 ↓ 144
2017-11-19 U Телохранитель киллера / The Hitman's Bodyguard (2017) BDRip-AVC от HELLYWOOD | iTunes 2.13 GB ↑ 211 ↓ 100
2017-11-19 U Телохранитель киллера / The Hitman's Bodyguard (2017) BDRip от MegaPeer | iTunes 1.41 GB ↑ 28 ↓ 82

Отзывы
Зарегистрируйтесь чтобы добавить комментарий.
Обратная связь
Copyleft ©