↑↓Torrent.by
Поиск
Логин: Регистрация
Пароль: Восстановить пароль
Загрузка...

Телохранитель киллера / The Hitman's Bodyguard (2017) HDRip-AVC от OlLanDGroup | iTunes

Скачать telohranitel-killera-the-hitman-s-bodyguard-2017-hdrip-avc-ot-ollandgroup-itunes.torrent
U Магнитная ссылка Размер: 2.49 GB Раздают: 201 Качают: 139 Добавлен: 2017-11-11 09:57:00
Телохранитель киллера / The Hitman's Bodyguard (2017) HDRip-AVC от OlLanDGroup | iTunes

Телохранитель киллера / The Hitman's Bodyguard
«Когда новый клиент – старый враг»

Год выпуска: 2017
Страна: США, Китай, Болгария, Нидерланды
Производство: Campbell Grobman Films, Cristal Pictures, East Light Media, Millennium Films
Жанр:  Боевик, комедия

Режиссёр: Патрик Хьюз
В ролях: Райан Рейнольдс, Сэмюэл Л. Джексон, Элоди Юнг, Сальма Хайек, Гэри Олдман, Жоаки де Алмейда, Юрий Колокольников, Тине Жустра, Сэм Хэзелдайн, Ричард Э. Грант, Род Халлетт, Нуртье Херлар, Михаил Горевой, Кирсти Митчелл, Крис Брейзиер, Алан МакКенна, Жозефин де ла Буме, Ори Феффер, Александр Меркюри, Майкл Джинкс, Джастин Пирсон, Оуэн Дэвис

Перевод: Дублированный | iTunes
Субтитры: Английские
Реклама: Отсутствует

Описание: Майкл Брюс был телохранителем высшего класса до первого убитого клиента. Теперь же он вынужден экранировать тела физических лиц в каких-то европейских выселках за умеренную плату. Майклу выпадает шанс вернуться в элиту: для этого всего-то нужно сопроводить лучшего смертельного врага, известного киллера Дариуса Кинкейда, из английского Ковентри до резиденции Международного суда ООН в Гааге и не умереть вместе с подопечным по дороге. Проблема даже не в том, что Дариус выступает главным свидетелем обвинения в деле восточноевропейского президента-диктатора Духовича, обвиняемого в массовом геноциде жителей своей страны и махинациях с картошкой. И не в том, что до суда они должны добраться в течение 24 часов, продравшись сквозь строй озлобленных мужиков с автоматами. В силу своих профессиональных деформаций, телохранитель и киллер питают друг к другу самые "нежные чувства" и всерьез рискуют убить, расчленить и сжечь партнера в порыве взаимной страсти.

Качество: HDRip-AVC
Продолжительность: 01:58:17

Формат: MKV
Видео кодек: MPEG-4 AVC
Аудио кодек: AC3
Видео: 1024x428 (2.40:1), 23,976 fps, x264 ~2178 kbps avg, 0.207 bit/pixel
Аудио #1: 48 kHz, AC3 Dolby Digital, 3/2 (L,C,R,l,r) + LFE ch, ~384.00 kbps avg | RUS (iTunes)
Аудио #2: 48 kHz, AC3 Dolby Digital, 3/2 (L,C,R,l,r) + LFE ch, ~448.00 kbps avg | ENG

Дата премьеры (мир): 10 августа 2017
Дата премьеры (РФ): 17 августа 2017, «MEGOGO Distribution»

Релиз: Rip by:


[+] MediaInfo

Общее
Уникальный идентификатор                 : 220480387154704823996346952085465870209 (0xA5DEFA5CB59D6E4C8CE0D8E865B62F81)
Полное имя                               : E:OlLanDGroupThe.Hitmans.BodyGuard.2017.HDRip(AVC).OlLanDGroup.mkv
Формат                                   : Matroska
Версия формата                           : Version 2
Размер файла                             : 2,49 Гбайт
Продолжительность                        : 1 ч. 58 м.
Общий поток                              : 3009 Кбит/сек
Название фильма                          : The Hitman's Bodyguard 2017    #TorpedoUK#
Дата кодирования                         : UTC 2017-11-10 19:55:48
Программа кодирования                    : mkvmerge v7.8.0 ('River Man') 32bit built on Apr  3 2015 12:11:22
Библиотека кодирования                   : libebml v1.3.1 + libmatroska v1.4.2

Видео
Идентификатор                            : 1
Формат                                   : AVC
Формат/Информация                        : Advanced Video Codec
Профиль формата                          : High@L4.1
Параметр CABAC формата                   : Да
Параметр ReFrames формата                : 10 кадров
Идентификатор кодека                     : V_MPEG4/ISO/AVC
Продолжительность                        : 1 ч. 58 м.
Битрейт                                  : 2178 Кбит/сек
Ширина                                   : 1024 пикселя
Высота                                   : 428 пикселей
Соотношение сторон                       : 2,40:1
Режим частоты кадров                     : Постоянный
Частота кадров                           : 23,976 (24000/1001) кадра/сек
Цветовое пространство                    : YUV
Субдискретизация насыщенности            : 4:2:0
Битовая глубина                          : 8 бит
Тип развёртки                            : Прогрессивная
Бит/(Пиксели*Кадры)                      : 0.207
Размер потока                            : 1,75 Гбайт (70%)
Библиотека кодирования                   : x264 core 146 r2538 121396c
Настройки программы                      : cabac=1 / ref=10 / deblock=1:-3:-3 / analyse=0x3:0x133 / me=umh / subme=11 / psy=1 / psy_rd=0.99:0.05 / mixed_ref=1 / me_range=48 / chroma_me=1 / trellis=2 / 8x8dct=1 / cqm=0 / deadzone=21,11 / fast_pskip=1 / chroma_qp_offset=-3 / threads=6 / lookahead_threads=1 / sliced_threads=0 / nr=0 / decimate=1 / interlaced=0 / bluray_compat=0 / constrained_intra=0 / bframes=10 / b_pyramid=2 / b_adapt=2 / b_bias=0 / direct=3 / weightb=1 / open_gop=0 / weightp=2 / keyint=240 / keyint_min=23 / scenecut=40 / intra_refresh=0 / rc_lookahead=40 / rc=2pass / mbtree=0 / bitrate=2178 / ratetol=1.0 / qcomp=0.60 / qpmin=0 / qpmax=69 / qpstep=4 / cplxblur=20.0 / qblur=0.5 / vbv_maxrate=50000 / vbv_bufsize=62500 / nal_hrd=none / filler=0 / ip_ratio=1.40 / pb_ratio=1.30 / aq=1:1.00
Язык                                     : English
Default                                  : Да
Forced                                   : Нет

Аудио #1
Идентификатор                            : 2
Формат                                   : AC-3
Формат/Информация                        : Audio Coding 3
Расширение режима                        : CM (complete main)
Параметр Endianness формата              : Big
Идентификатор кодека                     : A_AC3
Продолжительность                        : 1 ч. 58 м.
Вид битрейта                             : Постоянный
Битрейт                                  : 384 Кбит/сек
Каналы                                   : 6 каналов
Расположение каналов                     : Front: L C R, Side: L R, LFE
Частота                                  : 48,0 КГц
Частота кадров                           : 31,250 кадров/сек (1536 spf)
Битовая глубина                          : 16 бит
Метод сжатия                             : С потерями
Размер потока                            : 325 Мбайт (13%)
Заголовок                                : iTunes
Язык                                     : Russian
Default                                  : Да
Forced                                   : Нет

Аудио #2
Идентификатор                            : 3
Формат                                   : AC-3
Формат/Информация                        : Audio Coding 3
Расширение режима                        : CM (complete main)
Параметр Endianness формата              : Big
Идентификатор кодека                     : A_AC3
Продолжительность                        : 1 ч. 58 м.
Вид битрейта                             : Постоянный
Битрейт                                  : 448 Кбит/сек
Каналы                                   : 6 каналов
Расположение каналов                     : Front: L C R, Side: L R, LFE
Частота                                  : 48,0 КГц
Частота кадров                           : 31,250 кадров/сек (1536 spf)
Битовая глубина                          : 16 бит
Метод сжатия                             : С потерями
Размер потока                            : 379 Мбайт (15%)
Язык                                     : English
Default                                  : Нет
Forced                                   : Нет

Текст
Идентификатор                            : 4
Формат                                   : UTF-8
Идентификатор кодека                     : S_TEXT/UTF8
Идентификатор кодека/Информация          : UTF-8 Plain Text
Язык                                     : English
Default                                  : Нет
Forced                                   : Нет

Меню
00:00:00.000                             : en:00:00:00.000
00:07:22.942                             : en:00:07:22.942
00:13:53.875                             : en:00:13:53.875
00:20:23.305                             : en:00:20:23.305
00:27:20.138                             : en:00:27:20.138
00:32:53.513                             : en:00:32:53.513
00:38:25.428                             : en:00:38:25.428
00:46:52.977                             : en:00:46:52.977
00:56:39.354                             : en:00:56:39.354
01:00:23.370                             : en:01:00:23.370
01:09:11.397                             : en:01:09:11.397
01:16:34.381                             : en:01:16:34.381
01:21:11.241                             : en:01:21:11.241
01:27:45.093                             : en:01:27:45.093
01:35:06.743                             : en:01:35:06.743
01:40:37.740                             : en:01:40:37.740



Скриншоты:
[+] Всего файлов в раздаче - 1:
The.Hitmans.BodyGuard.2017.HDRip(AVC).OlLanDGroup.mkv2.49 GB

Текущая раздача:
ДатаКомментарии    РазмерПиры
2017-11-11 U Телохранитель киллера / The Hitman's Bodyguard (2017) HDRip-AVC от OlLanDGroup | iTunes 2.49 GB ↑ 201 ↓ 139

Показать еще раздачи по запросу телохранитель:
2017-11-23 U Телохранитель киллера / The Hitman's Bodyguard (2017) BDRip-HEVC 1080p от HEVC CLUB | iTunes 6.61 GB ↑ 65 ↓ 21
2017-11-20 U Телохранитель киллера / The Hitman's Bodyguard (2017) BDRip 1080p от New-Team & qqss44 | iTunes 7.52 GB ↑ 158 ↓ 152
2017-11-20 U Телохранитель киллера / The Hitman's Bodyguard (2017) BDRip 720p от HELLYWOOD | iTunes 1К4.31 GB ↑ 84 ↓ 62
2017-11-20 U Телохранитель киллера / The Hitman's Bodyguard (2017) BDRip-AVC от HELLYWOOD | iTunes 1.41 GB ↑ 51 ↓ 22
2017-11-19 U Телохранитель киллера / The Hitman's Bodyguard (2017) BDRemux 1080p | iTunes 32.60 GB ↑ 151 ↓ 144
2017-11-19 U Телохранитель киллера / The Hitman's Bodyguard (2017) BDRip-AVC от HELLYWOOD | iTunes 2.13 GB ↑ 211 ↓ 100
2017-11-19 U Телохранитель киллера / The Hitman's Bodyguard (2017) BDRip от MegaPeer | iTunes 1.41 GB ↑ 29 ↓ 83

Отзывы
Зарегистрируйтесь чтобы добавить комментарий.
Обратная связь
Copyleft ©