↑↓Torrent.by
Поиск
Логин: Регистрация
Пароль: Восстановить пароль
Загрузка...

Восхождение пехотинца 3 / Rise of the Footsoldier 3 (2017) WEBRip | L2

Скачать voshozhdenie-pehotinca-3-rise-of-the-footsoldier-2017-webrip-l2.torrent
U Магнитная ссылка Размер: 1.37 GB Раздают: 91 Качают: 55 Добавлен: 2017-11-11 09:58:54
Восхождение пехотинца 3 / Rise of the Footsoldier 3 (2017) WEBRip | L2

Название: Восхождение пехотинца 3
Оригинальное название: Rise of the Footsoldier 3

Год выхода: 2017
Жанр: Криминал
Режиссер: Закари Адлер
В ролях: Крэйг Фэйрбрасс, Терри Стоун, Роланд Манукян, Джэми Формен, Джош Майерс, Эдди Веббер, Йен Вирго, Энди Беквит, Шон Райдер, Лаура МакМонэйгл и другие
О фильме:
Известный гангстер, Пэт Тэйл, решает заполучить господство чёрного рынка Эссекса. Огромные деньги от продажи наркотиков - что может быть лучше, но у этой игры тоже есть свои правила, а за их нарушение придётся поплатиться жизнью.

Страна: Великобритания, Carnaby International
Продолжительность: 01:39:54
Перевод: Любительский (двухголосый закадровый) | RecentFilms

Файл
Кодек: XviD
Качество: WEBRip
Видео: 720x384, 23,976 fps, ~1762 Kbps, 0.27 bit/pixel
Звук:
Аудио rus: AC3, 48 kHz, 2 ch, 192 Kbps
Субтитры: отсутствуют

Реклама: присутствует

Семпл

Релиз от: RecentFilms


[+] MediaInfo:

General
Complete name                            : F:FilmsRise.of.the.Footsoldier.3.2017.WEBRip.RecentFilmsRise.of.the.Footsoldier.3.2017.WEBRip.RecentFilms.avi
Format                                   : AVI
Format/Info                              : Audio Video Interleave
File size                                : 1.37 GiB
Duration                                 : 1h 39mn
Overall bit rate                         : 1 964 Kbps
Writing application                      : VirtualDubMod 1.5.10.2 (build 2540/release)
Writing library                          : VirtualDubMod build 2540/release

Video
ID                                       : 0
Format                                   : MPEG-4 Visual
Format profile                           : Advanced Simple@L5
Format settings, BVOP                    : 1
Format settings, QPel                    : No
Format settings, GMC                     : No warppoints
Format settings, Matrix                  : Default (H.263)
Codec ID                                 : XVID
Codec ID/Hint                            : XviD
Duration                                 : 1h 39mn
Bit rate                                 : 1 763 Kbps
Width                                    : 720 pixels
Height                                   : 384 pixels
Display aspect ratio                     : 1.85:1
Frame rate                               : 23.976 (24000/1001) fps
Color space                              : YUV
Chroma subsampling                       : 4:2:0
Bit depth                                : 8 bits
Scan type                                : Progressive
Compression mode                         : Lossy
Bits/(Pixel*Frame)                       : 0.266
Stream size                              : 1.23 GiB (90%)
Writing library                          : XviD 67

Audio
ID                                       : 1
Format                                   : AC-3
Format/Info                              : Audio Coding 3
Mode extension                           : CM (complete main)
Format settings, Endianness              : Big
Codec ID                                 : 2000
Duration                                 : 1h 39mn
Bit rate mode                            : Constant
Bit rate                                 : 192 Kbps
Channel(s)                               : 2 channels
Channel positions                        : Front: L R
Sampling rate                            : 48.0 KHz
Frame rate                               : 31.250 fps (1536 spf)
Compression mode                         : Lossy
Stream size                              : 137 MiB (10%)
Alignment                                : Split accross interleaves
Interleave, duration                     : 42 ms (1.00 video frame)
Interleave, preload duration             : 500 ms




Скриншоты:
[+] Всего файлов в раздаче - 1:
Rise.of.the.Footsoldier.3.2017.WEBRip.RecentFilms.avi1.37 GB

Текущая раздача:
ДатаКомментарии    РазмерПиры
2017-11-11 U Восхождение пехотинца 3 / Rise of the Footsoldier 3 (2017) WEBRip | L2 1.37 GB ↑ 91 ↓ 55

Показать еще раздачи по запросу восхождение:
2017-08-26 U Восхождение на Олимп [01-08 из 08] (2015) HDTVRip-AVC от Files-x 6.36 GB ↑ 50 ↓ 45
2017-08-25 U Восхождение на Олимп [01-08 из 08] (2015) HDTVRip 720p от GeneralFilm 10.71 GB ↑ 94 ↓ 99
2017-08-25 U Восхождение на Олимп [01-08 из 08] (2015) HDTVRip от GeneralFilm 2К5.80 GB ↑ 119 ↓ 78
2017-08-23 U Восхождение на Олимп [01-04 из 08] (2015) HDTVRip от GeneralFilm 2.92 GB ↑ 36 ↓ 25
2017-08-22 U Восхождение на Олимп [01-02 из 08] (2015) HDTVRip от GeneralFilm 1.47 GB ↑ 39 ↓ 6
2017-03-16 U Восхождение пехотинца. Часть II / Rise of the Footsoldier Part II (2015) BDRip | А 1.46 GB ↑ 68 ↓ 38
2017-01-25 U Восхождение Юпитер / Jupiter Ascending (2015) HDRip-AVC | D 744.37 MB ↑ 75 ↓ 40

Отзывы
Зарегистрируйтесь чтобы добавить комментарий.
Обратная связь
Copyleft ©