↑↓Torrent.by
Поиск
Логин: Регистрация
Пароль: Восстановить пароль
Загрузка...

Пляжные крысы / Beach Rats (2017) WEBRip 720p | L2

Скачать plyazhnye-krysy-beach-rats-2017-webrip-720p-l2.torrent
U Магнитная ссылка Размер: 1.51 GB Раздают: 161 Качают: 66 Добавлен: 2017-11-11 14:39:28
Пляжные крысы / Beach Rats (2017) WEBRip 720p | L2

Название: Пляжные крысы
Оригинальное название: Beach Rats

Год выхода: 2017
Жанр: Драма
Режиссер: Элиза Хиттман
В ролях: Тони Д’Антонио, Харрис Дикинсон, Фрэнк Чакеу, Кейт Ходж, Нил Хафф, Давид Иванов, Эрик Потемпа, Антон Селиванов,Харрисон Шихан и другие
О фильме:
Мрачная история бруклинского подростка Фрэнки, сбегающего от умирающего отца к друзьям-оторвам и сексу за деньги с мужчинами постарше. Попутно он знакомится с девушкой, к которой испытывает некие чувства.

Страна: США,  Cinereach, Animal Kingdom
Продолжительность: 01:38:41
Перевод: Любительский (двухголосый закадровый) | RecentFilms

Файл
Кодек: MPEG-4 AVC/H.264
Качество: WEBRip 720p
Видео: 1280x720, 23,976 fps, ~2000 Kbps, 0.091 bit/pixel
Звук:
Аудио rus: AC3, 48 kHz, 2 ch, 192 Kbps
Субтитры: отсутствуют

Реклама: присутствует

Семпл

Релиз от: RecentFilms


[+] MediaInfo:

General
Unique ID                                : 174453133650071984597920477901040206102 (0x833E738EE09DBFBA8D10741D354D4116)
Complete name                            : F:FilmsBeach.Rats.2017.720p.WEBRip.RecentFilmsBeach.Rats.2017.720p.WEBRip.RecentFilms.mkv
Format                                   : Matroska
Format version                           : Version 4 / Version 2
File size                                : 1.51 GiB
Duration                                 : 1h 38mn
Overall bit rate                         : 2 193 Kbps
Encoded date                             : UTC 2017-11-10 23:36:35
Writing application                      : mkvmerge v17.0.0 ('Be Ur Friend') 64-bit
Writing library                          : libebml v1.3.5 + libmatroska v1.4.8

Video
ID                                       : 1
Format                                   : AVC
Format/Info                              : Advanced Video Codec
Format profile                           : High@L3
Format settings, CABAC                   : No
Format settings, ReFrames                : 1 frame
Codec ID                                 : V_MPEG4/ISO/AVC
Duration                                 : 1h 38mn
Bit rate                                 : 2 000 Kbps
Width                                    : 1 280 pixels
Height                                   : 720 pixels
Display aspect ratio                     : 16:9
Frame rate mode                          : Constant
Frame rate                               : 23.976 (24000/1001) fps
Original frame rate                      : 23.976 (23976/1000) fps
Color space                              : YUV
Chroma subsampling                       : 4:2:0
Bit depth                                : 8 bits
Scan type                                : Progressive
Bits/(Pixel*Frame)                       : 0.091
Stream size                              : 1.38 GiB (91%)
Writing library                          : x264 core 148 r2665 a01e339
Encoding settings                        : cabac=0 / ref=1 / deblock=1:0:0 / analyse=0x3:0x113 / me=hex / subme=7 / psy=1 / psy_rd=1.00:0.00 / mixed_ref=0 / me_range=16 / chroma_me=1 / trellis=1 / 8x8dct=1 / cqm=0 / deadzone=21,11 / fast_pskip=1 / chroma_qp_offset=-2 / threads=12 / lookahead_threads=2 / sliced_threads=0 / nr=0 / decimate=1 / interlaced=0 / bluray_compat=0 / constrained_intra=0 / bframes=0 / weightp=2 / keyint=250 / keyint_min=23 / scenecut=40 / intra_refresh=0 / rc_lookahead=40 / rc=abr / mbtree=1 / bitrate=2000 / ratetol=1.0 / qcomp=0.60 / qpmin=0 / qpmax=69 / qpstep=4 / ip_ratio=1.40 / aq=1:1.00
Default                                  : Yes
Forced                                   : No

Audio
ID                                       : 2
Format                                   : AC-3
Format/Info                              : Audio Coding 3
Mode extension                           : CM (complete main)
Format settings, Endianness              : Big
Codec ID                                 : A_AC3
Duration                                 : 1h 38mn
Bit rate mode                            : Constant
Bit rate                                 : 192 Kbps
Channel(s)                               : 2 channels
Channel positions                        : Front: L R
Sampling rate                            : 48.0 KHz
Frame rate                               : 31.250 fps (1536 spf)
Compression mode                         : Lossy
Stream size                              : 136 MiB (9%)
Default                                  : Yes
Forced                                   : No




Скриншоты:
[+] Всего файлов в раздаче - 1:
Beach.Rats.2017.720p.WEBRip.RecentFilms.mkv1.51 GB

Текущая раздача:
ДатаКомментарии    РазмерПиры
2017-11-11 U Пляжные крысы / Beach Rats (2017) WEBRip 720p | L2 1 К 1.51 GB ↑ 161 ↓ 66

Похожие раздачи по запросу - пляжные:
2017-11-11 U Пляжные крысы / Beach Rats (2017) WEBRip | L2 2К1.37 GB ↑ 87 ↓ 59

Отзывы
rshosse59_51
Одним словом "Голубые ели"

Зарегистрируйтесь чтобы добавить комментарий.
Обратная связь
Copyleft ©