↑↓Torrent.by
Поиск
Логин: Регистрация
Пароль: Восстановить пароль
Загрузка...

Взрывная блондинка / Atomic Blonde (2017) BDRip-HEVC 1080p от HEVC CLUB | iTunes

Скачать vzryvnaya-blondinka-atomic-blonde-2017-bdrip-hevc-1080p-ot-club-itunes.torrent
U Магнитная ссылка Размер: 5.50 GB Раздают: 132 Качают: 79 Добавлен: 2017-11-11 14:40:17
Взрывная блондинка / Atomic Blonde (2017) BDRip-HEVC 1080p от HEVC CLUB | iTunes

Название: Взрывная блондинка
Оригинальное название: Atomic Blonde

Год выпуска: 2017
Страна: Германия, Швеция, США
Жанр:  Боевик, триллер, детектив
Продолжительность: 01:54:44
Перевод: Дублированный [iTunes]
Субтитры: Русские, английские

В ролях: Шарлиз Терон, Джеймс МакЭвой, Эдди Марсан, Джон Гудмен, Тоби Джонс, Джеймс Фолкнер, Роланд Мёллер, София Бутелла, Билл Скарсгард, Сэм Харгрейв
Режиссёр: Дэвид Литч

Описание: Агент Лоррейн Бротон, бриллиант в короне Секретной разведывательной службы Ее Величества, не просто мастер шпионажа: она бомбически сексуальна, взрывоопасна и использует весь арсенал своих уникальных умений во время невыполнимых миссий. В неспокойном Берлине, куда ее направляют с заданием вернуть бесценное досье, она вынуждена объединиться с агентом под прикрытием Дэвидом Персивалем. Вместе им предстоит проложить путь через тернии смертельных шпионских игр.

Качество: BDRip-HEVC 1080p
Формат: MKV
Видео кодек: x265@10bit
Аудио кодек: DTS, AC3
Видео: 1920x804, 23,976 fps, HEVC, ~4970 kbps, 10bit
Аудио: Rus, 48 kHz/16-bit, AC3 5.1, ~384 kbps | Дублированный
Аудио: Eng, 48 kHz/24-bit, DTS 5.1, ~1509 kbps | Оригинал
Навигация по главам: Присутствует

Автор рипа: Alex_A

Семпл


[+] Внимание!
- H.265/HEVC (High Efficiency Video Coding) - это новый стандарт кодирования видео.
- Стандарт H.265/HEVC является логическим продолжением стандарта H.264/AVC (Advanced Video Coding), и характеризуется более эффективными алгоритмами сжатия, а также поддержкой высокого разрешения вплоть до 8K UHD (8192x4320). Первая версия стандарта H.265 была опубликована в начале 2013 года.
- Рипы в фомате HEVC поддерживается не всеми аппаратными проигрывателями.
- Для корректного воспроизведения может потребоваться обновление ПО.
- Владельцам несовместимого железа просьба не беспокоить, есть альтернативные релизы.



[+] Медиаинфо
General
Unique ID                                : 253776747397477756724941425336769217904 (0xBEEB9FAAD0F89F639DDF96A778FE8570)
Complete name                            : d:HEVCAtomic Blonde (2017)Atomic.Blonde.2017.1080p.iTunes_HEVCCLUB.mkv
Format                                   : Matroska
Format version                           : Version 4 / Version 2
File size                                : 5.50 GiB
Duration                                 : 1 h 54 min
Overall bit rate                         : 6 866 kb/s
Movie name                               : Atomic Blonde (2017) - HEVC.CLUB
Encoded date                             : UTC 2017-11-10 06:21:59
Writing application                      : mkvmerge v17.0.0 ('Be Ur Friend') 64-bit
Writing library                          : libebml v1.3.5 + libmatroska v1.4.8
Cover                                    : Yes
Attachments                              : Cover.jpg

Video
ID                                       : 1
Format                                   : HEVC
Format/Info                              : High Efficiency Video Coding
Format profile                           : Main 10@L4.1@High
Codec ID                                 : V_MPEGH/ISO/HEVC
Duration                                 : 1 h 54 min
Bit rate                                 : 4 970 kb/s
Width                                    : 1 920 pixels
Height                                   : 804 pixels
Display aspect ratio                     : 2.40:1
Frame rate mode                          : Constant
Frame rate                               : 23.976 (24000/1001) FPS
Color space                              : YUV
Chroma subsampling                       : 4:2:0
Bit depth                                : 10 bits
Bits/(Pixel*Frame)                       : 0.134
Stream size                              : 3.98 GiB (72%)
Title                                    : HEVC.CLUB
Writing library                          : x265 2.5+20-0967d0add97e:[Windows][GCC 7.2.0][64 bit] 10bit
Encoding settings                        : cpuid=1173503 / frame-threads=3 / numa-pools=8 / wpp / pmode / no-pme / no-psnr / ssim / log-level=2 / input-csp=1 / input-res=1920x804 / interlace=0 / total-frames=0 / level-idc=41 / high-tier=1 / uhd-bd=0 / ref=6 / no-allow-non-conformance / repeat-headers / annexb / no-aud / no-hrd / info / hash=0 / no-temporal-layers / open-gop / min-keyint=23 / keyint=250 / bframes=10 / b-adapt=2 / b-pyramid / bframe-bias=0 / rc-lookahead=60 / lookahead-slices=1 / scenecut=40 / no-intra-refresh / ctu=64 / min-cu-size=8 / no-rect / no-amp / max-tu-size=32 / tu-inter-depth=3 / tu-intra-depth=3 / limit-tu=0 / rdoq-level=1 / dynamic-rd=2.00 / no-ssim-rd / signhide / no-tskip / nr-intra=0 / nr-inter=0 / no-constrained-intra / no-strong-intra-smoothing / max-merge=2 / limit-refs=0 / no-limit-modes / me=1 / subme=7 / merange=64 / temporal-mvp / weightp / weightb / no-analyze-src-pics / deblock=-3:-3 / no-sao / no-sao-non-deblock / rd=4 / no-early-skip / no-rskip / no-fast-intra / no-tskip-fast / no-cu-lossless / no-b-intra / no-splitrd-skip / rdpenalty=0 / psy-rd=1.75 / psy-rdoq=2.50 / no-rd-refine / analysis-reuse-mode=0 / no-lossless / cbqpoffs=0 / crqpoffs=0 / rc=crf / crf=22.0 / qcomp=0.80 / qpstep=6 / stats-write=0 / stats-read=0 / vbv-maxrate=50000 / vbv-bufsize=50000 / vbv-init=0.9 / crf-max=0.0 / crf-min=0.0 / ipratio=1.50 / pbratio=1.00 / aq-mode=1 / aq-strength=0.20 / no-cutree / zone-count=0 / no-strict-cbr / qg-size=32 / no-rc-grain / qpmax=69 / qpmin=0 / no-const-vbv / sar=1 / overscan=0 / videoformat=5 / range=0 / colorprim=2 / transfer=2 / colormatrix=2 / chromaloc=0 / display-window=0 / max-cll=0,0 / min-luma=0 / max-luma=1023 / log2-max-poc-lsb=8 / vui-timing-info / vui-hrd-info / slices=1 / opt-qp-pps / opt-ref-list-length-pps / no-multi-pass-opt-rps / scenecut-bias=0.05 / no-opt-cu-delta-qp / aq-motion / no-hdr / no-hdr-opt / no-dhdr10-opt / analysis-reuse-level=5 / scale-factor=0 / refine-intra=0 / refine-inter=0 / refine-mv=0 / no-limit-sao / ctu-info=0
Default                                  : Yes
Forced                                   : Yes

Audio #1
ID                                       : 2
Format                                   : AC-3
Format/Info                              : Audio Coding 3
Format settings, Endianness              : Big
Codec ID                                 : A_AC3
Duration                                 : 1 h 54 min
Bit rate mode                            : Constant
Bit rate                                 : 384 kb/s
Channel(s)                               : 6 channels
Channel positions                        : Front: L C R, Side: L R, LFE
Sampling rate                            : 48.0 kHz
Frame rate                               : 31.250 FPS (1536 SPF)
Bit depth                                : 16 bits
Compression mode                         : Lossy
Delay relative to video                  : 24 ms
Stream size                              : 315 MiB (6%)
Title                                    : Dub [iTunes]
Language                                 : Russian
Service kind                             : Complete Main
Default                                  : Yes
Forced                                   : No

Audio #2
ID                                       : 3
Format                                   : DTS
Format/Info                              : Digital Theater Systems
Mode                                     : 16
Format settings, Endianness              : Big
Codec ID                                 : A_DTS
Duration                                 : 1 h 54 min
Bit rate mode                            : Constant
Bit rate                                 : 1 509 kb/s
Channel(s)                               : 6 channels
Channel positions                        : Front: L C R, Side: L R, LFE
Sampling rate                            : 48.0 kHz
Frame rate                               : 93.750 FPS (512 SPF)
Bit depth                                : 24 bits
Compression mode                         : Lossy
Delay relative to video                  : 3 ms
Stream size                              : 1.21 GiB (22%)
Title                                    : Original
Language                                 : English
Default                                  : No
Forced                                   : No

Text #1
ID                                       : 4
Format                                   : UTF-8
Codec ID                                 : S_TEXT/UTF8
Codec ID/Info                            : UTF-8 Plain Text
Duration                                 : 1 h 47 min
Bit rate                                 : 2 b/s
Count of elements                        : 42
Stream size                              : 1.64 KiB (0%)
Title                                    : Forced
Language                                 : Russian
Default                                  : Yes
Forced                                   : No

Text #2
ID                                       : 5
Format                                   : UTF-8
Codec ID                                 : S_TEXT/UTF8
Codec ID/Info                            : UTF-8 Plain Text
Duration                                 : 1 h 47 min
Bit rate                                 : 37 b/s
Count of elements                        : 974
Stream size                              : 29.3 KiB (0%)
Title                                    : Full
Language                                 : English
Default                                  : No
Forced                                   : No

Menu
00:00:00.000                             : en:Chapter 1
00:06:47.990                             : en:Chapter 2
00:11:03.162                             : en:Chapter 3
00:18:17.221                             : en:Chapter 4
00:24:15.579                             : en:Chapter 5
00:27:47.165                             : en:Chapter 6
00:32:50.009                             : en:Chapter 7
00:36:20.094                             : en:Chapter 8
00:40:46.152                             : en:Chapter 9
00:47:55.664                             : en:Chapter 10
00:53:13.481                             : en:Chapter 11
00:59:54.090                             : en:Chapter 12
01:03:32.767                             : en:Chapter 13
01:08:03.788                             : en:Chapter 14
01:10:52.414                             : en:Chapter 15
01:18:27.452                             : en:Chapter 16
01:24:28.271                             : en:Chapter 17
01:32:44.267                             : en:Chapter 18
01:42:06.245                             : en:Chapter 19
01:48:21.077                             : en:Chapter 20




Скриншоты:
[+] Всего файлов в раздаче - 1:
Atomic.Blonde.2017.1080p.iTunes_HEVCCLUB.mkv5.50 GB

Текущая раздача:
ДатаКомментарии    РазмерПиры
2017-11-11 U Взрывная блондинка / Atomic Blonde (2017) BDRip-HEVC 1080p от HEVC CLUB | iTunes 2 К 5.50 GB ↑ 132 ↓ 79

Показать еще раздачи по запросу взрывная:
2017-11-17 U Взрывная блондинка / Atomic Blonde (2017) BDRip-AVC | iTunes 745.00 MB ↑ 54 ↓ 19
2017-11-12 U Взрывная блондинка / Atomic Blonde (2017) BDRip-HEVC 1080p от ХиМиК | iTunes 4.16 GB ↑ 90 ↓ 37
2017-11-11 U Взрывная блондинка / Atomic Blonde (2017) BDRip-AVC от k.e.n & MegaPeer | D 1.46 GB ↑ 150 ↓ 34
2017-11-10 U Взрывная блондинка / Atomic Blonde (2017) HDRip-AVC от ExKinoRay | iTunes, L 2.36 GB ↑ 54 ↓ 14
2017-11-07 U Взрывная блондинка / Atomic Blonde (2017) BDRip от MegaPeer | iTunes 1.41 GB ↑ 319 ↓ 134
2017-11-07 U Взрывная блондинка / Atomic Blonde (2017) BDRip 1080p от New-Team & qqss44 | iTunes 7.55 GB ↑ 169 ↓ 175
2017-11-07 U Взрывная блондинка / Atomic Blonde (2017) BDRemux 1080p от ExKinoRay | D 30.34 GB ↑ 49 ↓ 27

Отзывы
jesus79
Так себе фильмец, 40 мин посмотрел и выключил, никчёмный.

dimon1974
Огромное спасибо за субтитры! Качаю!

Зарегистрируйтесь чтобы добавить комментарий.
Обратная связь
Copyleft ©